<?xml version="1.0" standalone="no"?>
<!DOCTYPE svg PUBLIC "-//W3C//DTD SVG 1.1//EN" "http://www.w3.org/Graphics/SVG/1.1/DTD/svg11.dtd">
<svg xmlns="http://www.w3.org/2000/svg">
<metadata>Generated by Fontastic.me</metadata>
<defs>
<font id="sc-icon" horiz-adv-x="512">
<font-face font-family="sc-icon" units-per-em="512" ascent="480" descent="-32"/>
<missing-glyph horiz-adv-x="512" />

<glyph glyph-name="icon-sc-l-360-rewards" unicode="&#57477;" d="M277 78l-17 10-17-10c1-1 1-2 1-3l-1-66-44 25-43-25 0 79c0 2 1 3 3 4l-14 34-41 2-2 41-38 15 10 40-31 26 21 34-21 34 31 26-10 40 38 15 2 41 41 2 15 38 40-10 26 31 34-21 34 21 26-31 40 10 15-38 41-2 2-41 38-15-10-40 31-26-21-34 21-34-31-26 10-40-38-15-2-41-41-2-15-38-4 1c0 0 0-1 0-1l0-79-40 25-40-25 0 67c0 0 0 1 1 2z m7-5l0-50 32 20 32-20 0 65c0 1 0 2 1 3l-29 7-26-31z m-48 0l-10-6-26 31-36-9c0 0 0-1 0-1l0-65 35 20 36-20z m210 211l21 33-30 24 10 38-36 14-3 39-39 3-14 36-37-10-25 30-33-21-33 21-24-30-38 10-14-36-39-3-3-39-36-14 10-38-30-24 21-33-21-33 30-25-10-37 36-14 3-39 39-3 14-36 38 10 24-30 33 21 33-21 25 30 37-10 14 36 39 3 3 39 36 14-10 37 30 25z m-185 152c86 0 159-72 159-158 0-85-70-154-157-154-86 0-155 68-155 154 0 87 68 158 153 158z m0-8c-80 0-145-68-145-150 0-81 65-146 147-146 82 0 149 65 149 146 0 81-69 150-151 150z m-95-58l4-4c-19-17-32-52-32-85 0-30 13-61 32-79l-4-4c-19 20-32 52-32 83 0 34 13 70 32 89z"/>
<glyph glyph-name="icon-sc-l-account-free-payroll-service" unicode="&#57478;" d="M461 155l35 0 0-17c0-20-14-36-34-36l-409 0c-20 0-37 16-37 36l0 17 35 0c0 0 0 0 0 0l0 222c0 20 18 39 38 39l338 0c19 0 34-18 34-39l0-222c0 0 0 0 0 0z m-9 0c0 0 0 0 0 0l0 222c0 17-11 30-25 30l-338 0c-15 0-29-14-29-30l0-222c0 0 0 0 0 0z m-192 224c8 0 15-6 15-14 0-8-7-14-15-14-7 0-14 6-14 14 0 8 7 14 14 14z m0-6c-4 0-7-4-7-8 0-4 3-8 7-8 5 0 8 4 8 8 0 4-3 8-8 8z m-235-227l0-8c0-15 13-27 28-27l409 0c15 0 25 11 25 27l0 8z m59 235c0 1 1 2 2 2 2 0 3-1 3-2l0-200c0-1-1-2-3-2-1 0-2 1-2 2z m90-146l5 0 0-5 0 0c1 2 3 3 4 4 2 1 4 1 6 1 2 0 3 0 5-1 2 0 3-1 4-3 1-1 2-3 3-5 0-2 1-4 1-7 0-2 0-4-1-6-1-2-2-4-3-5-1-2-2-3-4-3-2-1-3-2-5-2-2 0-4 1-6 2-2 0-3 2-4 3l0 0c0 0 0-1 0-2 0-1 0-2 0-3l0-9-5 0z m14-27c1 0 3 0 4 1 1 0 2 1 2 2 1 1 2 2 2 4 0 1 0 3 0 4 0 2 0 4 0 5 0 1-1 3-2 4 0 1-1 1-2 2-1 1-3 1-4 1-2 0-3 0-4-1-1-1-2-1-3-2-1-2-1-3-2-4 0-2 0-3 0-5 0-1 0-3 0-4 1-2 1-3 2-4 1-1 2-2 3-2 1-1 2-1 4-1z m28-4c-1 0-2 0-4 0-1 1-2 1-3 2-1 1-2 1-2 3-1 1-1 2-1 3 0 2 0 4 1 5 1 1 2 2 3 2 1 1 2 2 4 2 1 0 3 1 5 1 1 0 2 0 3 0 1 1 2 1 3 1 0 0 1 1 1 1 0 1 1 1 1 2 0 2-1 3-2 4-1 1-3 2-5 2-2 0-4-1-5-2-2-1-2-3-2-4l-5 0c0 1 0 2 1 3 0 2 1 3 2 3 1 1 2 2 4 3 1 0 3 0 5 0 1 0 3 0 4 0 1 0 2-1 3-1 2-1 3-2 3-3 1-2 1-3 1-5l0-15c0-1 1-2 1-2 0-1 1-1 3-1l0 0 0-4c-1 0-1 0-1 0-1 0-1 0-2 0-2 0-3 0-4 1 0 1-1 2-1 4l0 0c-1-1-1-2-2-2-1-1-1-1-2-2-1 0-2-1-3-1-1 0-2 0-4 0z m2 4c1 0 3 0 4 0 1 1 2 1 2 2 1 1 2 2 2 3 0 1 1 2 1 3l0 4c-1 0-2 0-3-1-2 0-3 0-4-1-1 0-2 0-3 0-1-1-2-1-3-1-1-1-1-1-2-2 0-1 0-2 0-3 0-1 0-1 0-2 1-1 1-1 2-1 0-1 1-1 2-1 0 0 1 0 2 0z m24-14c-1 0-1 0-2 0-1 0-2 0-2 0l0 5 0 0c0 0 1 0 1-1 1 0 2 0 2 0 1 0 2 1 3 1 1 1 1 2 2 3 0 0 0 0 0 1 0 0 0 0 0 1 0 0 1 1 1 1 0 1 0 1 0 1l-12 29 6 0 6-17c1-1 1-2 1-3 0-1 1-2 1-3 0-1 1-1 1-2l0 0c0 1 0 1 1 2 0 1 0 2 1 3 0 1 0 2 0 3l7 17 5 0-13-33c-1-2-1-3-2-4 0-1-1-2-2-3 0 0-1-1-2-1-1 0-2 0-3 0z m31 35l0 0c1 2 2 3 4 4 1 2 3 2 5 2 1 0 1 0 1 0 1 0 1 0 1 0l0-5 0 0c0 0-1 0-1 0 0 0-1 0-1 0-1 0-2 0-3-1-2 0-2-1-3-1-1-1-2-2-2-3-1-1-1-3-1-4l0-17-5 0 0 31 5 0z m27-26c-2 0-4 1-6 2-2 1-3 2-5 3-1 2-2 3-3 5 0 2-1 4-1 6 0 3 1 5 1 7 1 2 2 3 3 5 2 1 3 2 5 3 2 1 4 1 6 1 3 0 5 0 6-1 2-1 4-2 5-3 1-2 2-3 3-5 1-2 1-4 1-7 0-2 0-4-1-6-1-2-2-3-3-5-1-1-3-2-5-3-1-1-3-2-6-2z m0 5c2 0 3 0 4 1 2 0 2 1 3 2 1 1 2 2 2 4 0 1 1 3 1 4 0 2-1 4-1 5 0 1-1 3-2 4-1 1-1 2-3 2-1 1-2 1-4 1-1 0-3 0-4-1-1 0-2-1-3-2-1-1-1-3-2-4 0-1 0-3 0-5 0-1 0-3 0-4 1-2 1-3 2-4 1-1 2-2 3-2 1-1 3-1 4-1z m21 38l5 0 0-42-5 0z m13 0l5 0 0-42-5 0z"/>
<glyph glyph-name="icon-sc-l-account-info" unicode="&#57479;" d="M178 378l-104 0c-8 0-14-6-14-14l0-246 392 0 0 246c0 8-6 14-13 14l-100 0c2-7 3-14 3-22 0-46-38-84-84-84-46 0-83 38-83 84 0 8 1 15 3 22z m2 9c13 31 43 53 78 53 36 0 66-22 78-53l103 0c12 0 22-10 22-23l0-246 35 0 0-31c0-12-10-22-22-22l-436 0c-12 0-22 10-22 22l0 31 35 0 0 246c0 13 10 23 23 23l105 0c0 0 1 0 1 0z m-155-278l0-22c0-8 6-14 13-14l436 0c7 0 13 6 13 14l0 22z m55 243c0 1 1 2 2 2 1 0 2-1 2-2l0-199c0-1-1-2-2-2-1 0-2 1-2 2z m253 4c0 42-33 75-75 75-41 0-75-33-75-75 0-41 34-75 75-75 42 0 75 34 75 75z m-73-48c0-2-1-3-2-3-1 0-2 1-2 3l0 57c0 1 1 2 2 2 1 0 2-1 2-2z m0 79c0-1-1-2-2-2-1 0-2 1-2 2l0 13c0 2 1 2 2 2 1 0 2 0 2-2z m-99-203c-2 0-3 0-4 0-2 1-3 1-4 2 0 1-1 2-2 3 0 1-1 2-1 4 0 1 1 3 1 4 1 1 2 2 3 3 1 0 3 1 4 1 2 1 4 1 6 1 1 0 2 0 3 1 0 0 1 0 2 0 1 1 1 1 1 2 1 0 1 1 1 1 0 2-1 3-2 4-1 1-3 2-5 2-2 0-4-1-5-2-1-1-2-2-2-4l-5 0c0 1 0 2 1 4 0 1 1 2 2 3 1 1 2 1 4 2 1 0 3 1 5 1 2 0 3-1 4-1 2 0 3 0 4-1 1-1 2-2 3-3 0-2 1-3 1-5l0-14c0-2 0-3 0-3 1-1 2-1 3-1l0 0 0-3c0 0-1-1-1-1 0 0-1 0-2 0-1 0-3 1-3 1-1 1-2 2-2 4l0 0c-1-1-1-1-2-2 0-1-1-1-2-2-1 0-2 0-3-1-1 0-2 0-3 0z m1 4c2 0 3 0 4 1 1 0 2 1 3 1 0 1 1 2 1 3 1 1 1 2 1 3l0 5c-1-1-2-1-3-2-1 0-3 0-4 0-1-1-2-1-3-1-1 0-2-1-3-1 0-1-1-1-1-2-1 0-1-1-1-2 0-1 0-2 1-3 0 0 0-1 1-1 0-1 1-1 2-1 1 0 1 0 2 0z m35-4c-3 0-5 0-7 1-1 1-3 2-4 3-1 2-2 3-3 5-1 2-1 4-1 7 0 2 0 4 1 6 1 2 2 4 3 5 1 1 3 3 4 3 2 1 4 2 7 2 3 0 6-1 9-3 2-2 3-5 4-8l-6 0c0 2-1 4-2 5-1 1-3 1-5 1-2 0-3 0-4-1-2 0-3-1-3-2-1-1-2-2-2-4-1-1-1-3-1-4 0-2 0-4 1-5 0-1 1-3 2-4 0-1 1-2 3-2 1-1 2-1 4-1 2 0 4 1 5 2 2 1 2 3 3 5l5 0c-1-3-2-6-4-8-2-2-6-3-9-3z m31 0c-2 0-4 0-6 1-2 1-3 2-5 3-1 2-2 3-2 5-1 2-2 4-2 7 0 2 1 4 2 6 0 2 1 4 2 5 2 1 3 3 5 3 2 1 4 2 6 2 4 0 7-1 9-3 2-2 4-5 4-8l-5 0c0 2-1 4-2 5-2 1-4 1-6 1-1 0-3 0-4-1-1 0-2-1-3-2-1-1-1-2-2-4 0-1 0-3 0-4 0-2 0-4 0-5 1-1 1-3 2-4 1-1 2-2 3-2 1-1 3-1 4-1 3 0 5 1 6 2 1 1 2 3 2 5l5 0c0-3-1-6-4-8-2-2-5-3-9-3z m32 0c-2 0-4 0-6 1-2 1-4 2-5 3-1 2-2 3-3 5-1 2-1 4-1 7 0 2 0 4 1 6 1 2 2 4 3 5 1 1 3 3 5 3 2 1 4 2 6 2 2 0 4-1 6-2 2 0 3-2 5-3 1-1 2-3 3-5 0-2 1-4 1-6 0-3-1-5-1-7-1-2-2-3-3-5-2-1-3-2-5-3-2-1-4-1-6-1z m0 4c1 0 3 0 4 1 1 0 2 1 3 2 1 1 1 3 2 4 0 1 0 3 0 5 0 1 0 3 0 4-1 2-1 3-2 4-1 1-2 2-3 3-1 0-3 0-4 0-2 0-3 0-4 0-1-1-2-2-3-3-1-1-2-2-2-4 0-1-1-3-1-4 0-2 1-4 1-5 0-1 1-3 2-4 1-1 2-2 3-2 1-1 2-1 4-1z m40-3l0 4 0 0c-2-2-3-3-4-4-2-1-3-1-6-1-3 0-5 1-7 3-2 1-3 4-3 7l0 21 5 0 0-21c0-2 1-3 2-4 1-1 3-2 5-2 1 0 2 0 3 1 1 0 2 1 3 2 0 0 1 1 1 2 0 1 1 2 1 3l0 19 5 0 0-30z m17 26l1 0c1 1 2 2 3 3 2 1 4 2 6 2 3 0 6-1 8-3 1-2 2-4 2-7l0-21-5 0 0 20c0 2 0 4-2 5-1 1-2 1-5 1-1 0-2 0-3 0-1-1-2-1-2-2-1-1-2-2-2-3 0-1-1-2-1-3l0-18-5 0 0 30 5 0z m24 4l5 0 0 9 5 0 0-9 7 0 0-4-7 0 0-19c0-1 1-2 1-3 1 0 1 0 2 0 1 0 1 0 2 0 0 0 1 0 1 0l0 0 0-4c-1-1-3-1-4-1-2 0-4 1-5 2-1 1-2 2-2 4l0 21-5 0z"/>
<glyph glyph-name="icon-sc-l-account-islandwide-nets-payment" unicode="&#57480;" d="M256 319c-7 0-13 3-17 8-3 4-4 7-5 9l4 1c1-1 2-4 4-7 4-4 9-7 17-7 13 0 19 6 19 17 0 6-5 10-13 14-2 1-3 1-7 2-15 5-21 10-21 20 0 10 7 17 19 18l0 11 4 0 0-11c9-1 14-4 17-10 2-3 3-6 3-9l-5 0c0 2 0 5-2 7-2 5-7 7-14 7-11 0-17-5-17-13 0-7 4-11 17-16 4-1 5-1 7-2 11-4 16-10 16-18 0-13-7-21-22-21l0-11-4 0z m-78 59l-104 0c-8 0-14-6-14-14l0-246 392 0 0 246c0 8-6 14-14 14l-99 0c2-7 3-14 3-22 0-46-38-84-84-84-46 0-83 38-83 84 0 8 1 15 3 22z m2 9c13 31 43 53 78 53 36 0 66-22 78-54 1 0 1 1 1 1l101 0c13 0 23-10 23-23l0-246 35 0 0-31c0-12-10-22-22-22l-436 0c-12 0-22 10-22 22l0 31 35 0 0 246c0 13 10 23 23 23l105 0c0 0 1 0 1 0z m-155-278l0-22c0-8 6-14 13-14l436 0c7 0 13 6 13 14l0 22z m308 247c0 42-33 75-75 75-41 0-75-33-75-75 0-41 34-75 75-75 42 0 75 34 75 75z m-253-4c0 1 1 2 2 2 1 0 2-1 2-2l0-199c0-1-1-2-2-2-1 0-2 1-2 2z m130-137l0 0c1 2 2 3 4 4 1 1 3 1 6 1 3 0 5-1 7-3 2-1 3-4 3-7l0-21-5 0 0 21c0 1-1 3-2 4-1 1-3 2-5 2-1 0-2-1-3-1-1 0-2-1-3-2-1 0-1-1-2-2 0-1 0-2 0-4l0-18-5 0 0 30 5 0z m40-27c-2 0-4 1-6 1-2 1-4 2-5 4-1 1-2 3-3 5 0 2-1 4-1 6 0 2 1 4 1 6 1 2 2 4 3 5 1 2 3 3 5 4 2 1 4 1 6 1 2 0 4 0 6-1 1-1 3-2 4-4 1-1 2-3 3-5 1-2 1-5 1-7l-23 0c0-2 0-3 0-4 1-2 1-3 2-4 1-1 2-1 3-2 1 0 3-1 4-1 2 0 4 1 5 2 2 1 3 2 3 4l5 0c0-3-2-6-4-7-3-2-6-3-9-3z m0 28c-2 0-3 0-4-1-1 0-2-1-3-2 0-1-1-2-1-3-1-1-1-2-1-3l17 0c0 3-1 5-2 7-2 1-4 2-6 2z m16 3l5 0 0 10 5 0 0-10 7 0 0-4-7 0 0-19c0-1 1-2 1-2 1-1 1-1 2-1 1 0 1 0 2 0 0 0 1 1 1 1l0 0 0-5c-1 0-3 0-4 0-2 0-4 0-5 1-1 1-2 3-2 5l0 20-5 0z m34-31c-4 0-8 1-10 3-2 2-4 4-4 7l6 0c0-1 0-2 0-3 1 0 2-1 2-1 1-1 2-1 3-1 1-1 2-1 3-1 2 0 4 1 5 2 1 1 2 2 2 3 0 2-1 3-2 4-2 0-4 1-6 1-2 1-3 1-4 1-2 1-3 1-4 2-1 1-2 1-3 2 0 1-1 3-1 4 0 3 1 5 3 7 2 1 5 2 9 2 3 0 6-1 8-2 2-2 3-4 4-7l-6 0c0 2 0 3-2 4-1 1-2 1-4 1-3 0-4 0-5-1-1-1-1-2-1-3 0-1 0-2 0-2 1-1 1-1 2-1 0-1 1-1 2-1 1-1 2-1 4-1 1 0 3-1 4-1 1 0 3-1 4-2 1 0 1-1 2-2 1-1 1-3 1-5 0-1 0-3-1-4-1-1-1-2-2-3-2 0-3-1-4-1-2-1-3-1-5-1z"/>
<glyph glyph-name="icon-sc-l-account-security" unicode="&#57481;" d="M387 203c-5 2-8 6-8 11 0 7 5 12 12 12 6 0 11-5 11-12 0-5-3-9-7-11l0-61c0-3-2-4-4-4-3 0-4 1-4 4z m54 74l0 34c0 28-24 52-51 52-27 0-50-24-50-52l0-33c15 8 31 13 49 13 19 0 37-5 52-14z m9-6c27-19 46-52 46-88 0-58-47-105-106-105-58 0-105 47-105 105 0 37 19 71 47 90l0 38c0 33 26 61 58 61 32 0 60-29 60-61z m-114-6c-26-18-42-48-42-82 0-54 43-97 96-97 54 0 98 43 98 97 0 54-46 99-99 99-18 0-35-5-49-14-1-1-2-3-4-3 0 0 0 0 0 0z m-86 140c7 0 13-6 13-14 0-8-6-14-13-14-8 0-14 6-14 14 0 8 6 14 14 14z m0-6c-4 0-8-4-8-8 0-4 4-7 8-7 4 0 7 3 7 7 0 4-3 8-7 8z m183 2c0-2-2-4-4-4-3 0-5 2-5 4 0 17-11 31-25 31l-307 0c-16 0-30-15-30-31l0-225c0-2-2-4-4-4-2 0-4 2-4 4l0 225c0 20 18 39 38 39l307 0c19 0 34-18 34-39z m-409-238l0-9c0-16 14-29 30-29l215 0c2 0 4-2 4-5 0-2-2-4-4-4l-215 0c-21 0-38 18-38 38l0 18 237 0c2 0 4-2 4-5 0-2-2-4-4-4z m61 239c0 1 1 2 3 2 1 0 2-1 2-2l0-205c0-1-1-2-2-2-2 0-3 1-3 2z m306-182c-3 0-6-3-6-6 0-3 3-5 6-5 3 0 5 2 5 5 0 3-2 6-5 6z m-61 22l3-4c-14-12-24-36-24-58 0-20 10-41 24-53l-3-4c-16 13-26 35-26 57 0 24 11 49 26 62z"/>
<glyph glyph-name="icon-sc-l-account-summary" unicode="&#57482;" d="M178 378l-104 0c-8 0-14-6-14-14l0-246 392 0 0 246c0 8-6 14-13 14l-100 0c2-7 3-14 3-22 0-46-38-84-84-84-46 0-83 38-83 84 0 8 1 15 3 22z m2 9c13 31 43 53 78 53 36 0 66-22 78-53l103 0c12 0 22-10 22-23l0-246 35 0 0-31c0-12-10-22-22-22l-436 0c-12 0-22 10-22 22l0 31 35 0 0 246c0 13 10 23 23 23l105 0c0 0 1 0 1 0z m-155-278l0-22c0-8 6-14 13-14l436 0c7 0 13 6 13 14l0 22z m55 243c0 1 1 2 2 2 1 0 2-1 2-2l0-199c0-1-1-2-2-2-1 0-2 1-2 2z m253 4c0 42-33 75-75 75-41 0-75-33-75-75 0-41 34-75 75-75 42 0 75 34 75 75z m-73-48c0-2-1-3-2-3-1 0-2 1-2 3l0 57c0 1 1 2 2 2 1 0 2-1 2-2z m0 79c0-1-1-2-2-2-1 0-2 1-2 2l0 13c0 2 1 2 2 2 1 0 2 0 2-2z m-110-203c-4 0-7 1-10 2-2 2-3 5-3 8l5 0c0-1 0-2 1-3 0-1 1-1 2-2 0 0 1-1 2-1 1 0 2 0 3 0 3 0 4 0 5 1 2 1 2 2 2 4 0 1-1 2-2 3-1 1-3 1-6 2-1 0-3 1-4 1-1 0-3 1-4 1-1 1-2 2-2 3-1 1-1 2-1 4 0 3 1 5 3 6 2 2 4 3 8 3 4 0 7-1 9-3 2-1 3-4 3-6l-5 0c0 1-1 3-2 3-1 1-3 2-5 2-2 0-4-1-5-2-1 0-1-1-1-3 0 0 0-1 1-2 0 0 0-1 1-1 1 0 2 0 3-1 1 0 2 0 3 0 2-1 3-1 4-1 2-1 3-1 4-2 1-1 2-2 2-3 1-1 1-2 1-4 0-2 0-3-1-4 0-1-1-2-2-3-1-1-2-1-4-2-1 0-3 0-5 0z m37 1l0 4 0 0c-1-2-2-3-4-4-1-1-3-1-5-1-3 0-6 1-7 3-2 1-3 4-3 7l0 21 5 0 0-21c0-2 1-3 2-4 1-1 3-2 5-2 1 0 2 0 3 1 1 0 2 1 2 2 1 0 1 1 2 2 0 1 0 2 0 3l0 19 6 0 0-30z m13 30l5 0 0-5 0 0c1 2 2 3 4 4 1 1 3 2 5 2 2 0 4-1 5-2 1-1 2-2 3-4l0 0c1 2 3 3 4 4 2 1 4 2 6 2 2 0 5-1 6-3 2-2 3-4 3-7l0-21-5 0 0 20c0 2-1 4-2 5-1 1-2 1-4 1-1 0-2 0-3 0 0-1-1-1-2-2 0-1-1-2-1-3-1-1-1-2-1-3l0-18-5 0 0 20c0 2-1 4-2 5-1 1-2 1-3 1-1 0-2 0-3 0-1-1-2-1-2-2-1-1-2-2-2-3-1-1-1-2-1-3l0-18-5 0z m48 0l5 0 0-5 0 0c1 2 3 3 4 4 2 1 3 2 5 2 2 0 4-1 5-2 2-1 3-2 3-4l0 0c1 2 3 3 4 4 2 1 4 2 6 2 2 0 5-1 6-3 2-2 3-4 3-7l0-21-5 0 0 20c0 2-1 4-2 5-1 1-2 1-4 1-1 0-2 0-2 0-1-1-2-1-3-2 0-1-1-2-1-3-1-1-1-2-1-3l0-18-5 0 0 20c0 2-1 4-1 5-1 1-3 1-4 1-1 0-2 0-3 0-1-1-2-1-2-2-1-1-2-2-2-3-1-1-1-2-1-3l0-18-5 0z m57-31c-1 0-3 0-4 0-1 1-2 1-3 2-1 1-2 2-2 3-1 1-1 2-1 4 0 1 0 3 1 4 0 1 1 2 2 3 2 0 3 1 5 1 1 1 3 1 5 1 1 0 2 0 3 1 1 0 2 0 2 0 1 1 1 1 2 2 0 0 0 1 0 1 0 2 0 3-1 4-2 1-3 2-5 2-3 0-4-1-6-2-1-1-1-2-2-4l-5 0c0 1 1 2 1 4 1 1 2 2 3 3 1 1 2 1 3 2 2 0 4 1 6 1 1 0 2-1 4-1 1 0 2 0 3-1 1-1 2-2 3-3 1-2 1-3 1-5l0-14c0-2 0-3 1-3 0-1 1-1 2-1l1 0 0-3c-1 0-1-1-2-1 0 0-1 0-1 0-2 0-3 1-4 1-1 1-1 2-2 4l0 0c0-1-1-1-1-2-1-1-2-1-3-2 0 0-1 0-2-1-1 0-3 0-4 0z m1 4c2 0 3 0 4 1 1 0 2 1 3 1 1 1 1 2 2 3 0 1 0 2 0 3l0 5c0-1-1-1-3-2-1 0-2 0-3 0-2-1-3-1-4-1-1 0-2-1-2-1-1-1-2-1-2-2 0 0-1-1-1-2 0-1 1-2 1-3 0 0 1-1 1-1 1-1 1-1 2-1 1 0 2 0 2 0z m27 21l0 0c1 2 2 4 4 5 1 1 3 1 5 1 1 0 1 0 1 0 1 0 1 0 1 0l0-5 0 0c0 0-1 0-1 0 0 0-1 0-1 0-1 0-2 0-4 0-1-1-1-1-2-2-1-1-2-2-2-3-1-1-1-3-1-4l0-16-5 0 0 30 5 0z m20-35c-1 0-2 0-3 0 0 0-1 0-1 1l0 4 0 0c0 0 1 0 1 0 1 0 1 0 2 0 1 0 2 0 3 0 0 1 1 2 1 3 0 0 1 0 1 1 0 0 0 1 0 1 0 0 0 1 0 1 1 1 1 1 1 1l-12 29 6 0 6-17c0-1 1-2 1-3 0-1 0-1 1-2 0-1 0-2 0-3l1 0c0 1 0 2 0 3 1 1 1 1 1 2 1 1 1 2 1 3l6 17 6 0-13-33c-1-2-1-3-2-4-1-1-1-2-2-3-1 0-2-1-2-1-1 0-2 0-3 0z"/>
<glyph glyph-name="icon-sc-l-added-value-care" unicode="&#57483;" d="M378 217l15-16c1 0 1-2 0-2 0-1-2-1-2 0l-16 15c-6-6-13-13-23-23-7-7-15-15-23-23-8-8-8-8-10-10-18-17-27-35-27-63l0-39c0-2-2-4-4-4-2 0-4 2-4 4l0 39c0 30 10 51 29 68 2 3 2 3 11 11 7 8 15 15 22 23 18 18 30 29 33 32 9 9 24 9 34-1 10-9 9-24 0-33-8-8-8-8-23-23-17-18-17-18-23-24-2-1-4-1-6 0-2 2-2 4 0 6 6 6 6 6 24 24 15 14 15 14 23 22 5 6 6 16-1 23-7 7-17 7-22 1-2-1-4-4-7-7z m74 46c-1 1-2 2-2 4l0 89c0 13 11 24 25 24 14 0 25-11 25-24l0-125c0-25-8-43-25-62l-60-61c-2-2-12-12-15-16-8-9-13-16-17-23-2-5-3-9-3-13 0-2-2-4-4-4-2 0-4 2-4 4 0 5 1 11 4 16 4 8 10 16 18 25 3 4 14 15 15 16l60 62c16 17 23 33 23 56l0 125c0 8-7 16-17 16-10 0-17-7-17-16l0-81c1-1 2-2 2-3 0-17-1-22-4-27-2-3-1-2-10-12l-3-4c-1-1-4-1-6 0-1 1-1 4 0 6l3 3c8 9 8 9 9 11 2 3 3 6 3 14z m-319-53l-12-11c0-1-2-1-2 0-1 0-1 2 0 2l11 12c-5 6-9 9-11 11-5 6-15 6-22-1-7-7-6-17-1-23 3-2 11-10 23-22 9-9 9-9 17-17 6-6 6-6 7-7 2-2 2-4 0-6-2-1-4-1-6 0-1 2-1 2-7 8-7 7-7 7-16 16-12 12-21 20-23 23-9 9-10 24 0 33 10 10 25 10 34 1 2-1 6-5 11-11 1 0 1 0 1-1 1 0 1 0 1-1 5-5 12-11 20-19 7-8 15-15 22-23 9-8 9-8 11-10 19-18 29-39 29-69l0-39c0-2-2-4-4-4-2 0-4 2-4 4l0 39c0 28-9 46-27 63-2 2-2 2-10 10-8 8-16 16-23 23-8 8-14 14-19 19z m-73 53c0-8 1-11 3-14 1-2 1-2 9-11l3-3c1-2 1-5 0-6-2-1-5-1-6 0l-3 4c-9 10-8 9-10 12-3 5-4 10-4 27 0 1 1 2 2 3l0 81c0 9-7 16-17 16-10 0-17-8-17-16l0-125c0-23 7-39 23-56l60-62c1-1 12-12 15-16 8-9 14-17 18-25 3-5 4-11 4-16 0-2-2-4-4-4-2 0-4 2-4 4 0 4-1 8-3 13-4 7-9 14-17 23-3 4-13 14-15 16l-60 61c-17 19-25 37-25 62l0 125c0 13 11 24 25 24 14 0 25-11 25-24l0-89c0-2-1-3-2-4z m187 189c46 0 85-41 85-89 0-48-38-87-84-87-47 0-84 39-84 87 0 49 37 89 83 89z m0-8c-42 0-75-36-75-81 0-44 34-79 76-79 42 0 76 35 76 79 0 44-36 81-77 81z m-81-158c0 1 0 2 1 3 1 1 2 0 3 0 20-25 47-39 77-39 31 0 59 14 79 39 1 1 2 1 3 1 1-1 1-2 1-3-21-26-51-41-83-41-31 0-60 15-81 40z m53 76l20-20 46 45 6-6-52-51-26 26z"/>
<glyph glyph-name="icon-sc-l-added-value-fees-and-charges" unicode="&#57484;" d="M246 342c-11 1-19 5-25 11-2 3-4 6-5 8-1 2-2 3-2 4l4 1c0 0 0-2 1-3 1-2 3-5 5-7 6-6 14-10 25-10 19 0 29 9 29 24 0 9-7 15-20 20-3 1-5 1-11 3-20 7-28 13-28 25 0 14 10 23 27 24l0 14 4 0 0-14c12 0 20-5 24-12 2-3 3-5 4-8 0-2 0-3 0-4l-4 0c0 1 0 2 0 3-1 2-2 5-3 7-4 6-11 10-22 10-17 0-26-8-26-20 0-9 6-15 26-21 5-2 7-2 10-3 15-6 23-13 23-24 0-17-11-28-32-28l0-14-4 0z m4-186l0-28c0-1-1-2-2-2-1 0-2 1-2 2l0 28c-9 0-19 0-31 0-3 0-3 0-5 0-14 0-27 0-41 0-14 0-14 0-18 0-34 0-60-9-87-35l-37-36c-2-1-4-1-6 0-1 2-1 4 0 6l37 36c29 28 57 37 93 37 4 0 4 0 18 0 14 0 27 0 41 0 2 0 2 0 5 0 35 0 57 0 63 0 16 0 30-13 30-31 0-18-14-31-30-31-6 0-21 0-44 0-3 0-3 0-6 0-15 0-15 0-28 0-10 0-10 0-12 0-2 0-4 2-4 4 0 2 2 4 4 4 2 0 2 0 12 0 13 0 13 0 28 0 3 0 3 0 6 0 23 0 38 0 44 0 11 0 22 10 22 23 0 13-10 23-22 23-4 0-13 0-28 0z m121-29c-12-13-17-18-23-21-6-3-10-4-25-3-2 0-3 0-4 0l-7 0c-2 0-4 1-4 4 0 2 2 4 4 4l7 0c1 0 2 0 4 0 14-1 17 0 22 2 4 3 9 7 20 20 1 1 1 1 2 1 2 2 3 3 12 12 13 12 13 12 28 27 22 21 37 35 41 39 11 11 30 11 43-1 12-12 12-31 0-42l-114-110c-22-22-45-31-78-31l-112 0c-1 0-2 0-4 0-16 0-25 0-35-1-19-2-34-7-41-14-2-1-4-1-6 0-1 2-1 4 0 6 10 9 25 14 46 16 11 1 20 1 36 1 2 0 3 0 4 0l112 0c31 0 52 8 73 29l114 109c8 8 8 22-1 31-10 9-24 9-32 1-4-4-18-18-40-39-16-15-16-15-29-27-10-10-10-10-13-12 0-1 0-1 0-1z m-129 373c62 0 114-52 114-113 0-62-50-111-113-111-61 0-111 49-111 111 0 62 49 113 110 113z m0-8c-57 0-102-47-102-105 0-57 46-103 103-103 58 0 105 46 105 103 0 57-49 105-106 105z m-107-206c-1 1-1 2 0 3 0 0 2 0 2 0 28-30 65-47 106-47 41 0 80 17 108 47 0 1 2 1 2 0 1 0 1-2 0-2-28-31-67-49-110-49-42 0-81 17-108 48z"/>
<glyph glyph-name="icon-sc-l-added-value-grow-01" unicode="&#57485;" d="M260 257c-30 0-61-15-79-38-1-1-1-3 0-4 1-1 3-1 5 0 17 22 46 35 74 35 30 0 63-14 79-35 0-1 1-1 2-1 1 0 2 0 2 1 2 1 2 3 1 4-18 22-52 38-84 38z m-34 138l-41 0c-18 0-33 19-35 37l44 0c18 0 32-15 32-33z m69 90l1 0c-3-12-14-26-28-26l-1 0c2 18 15 26 28 26z m-1-134c0 18 16 33 34 33l45 0c-3-18-17-37-35-37l-44 0z m-166-162c0 0 1-1 2-1 2 0 4 2 4 4 20 53 71 87 127 87 48 0 93-25 117-66 2-2 5-3 7-1 3 1 4 4 2 7-25 42-71 69-121 71l0 46 72 0c26 0 46 28 46 54l0 5-56 0c-24 0-44-20-44-44l0-4-18 0 0 101 2 0c21 0 37 23 37 43l0 5-10 0c-20 0-39-15-39-43l0-58-19 0 0 4c0 24-19 44-43 44l-57 0 0-6c0-25 21-53 48-53l71 0 0-94c-59-2-111-39-131-94-1-3 0-6 3-7z m118-39l0-21c0-2 1-3 2-3 2 0 3 1 3 3l0 21c7 0 13 0 15 0 9 0 17-7 17-19 0-6-3-10-5-13-3-3-8-5-13-5l-82 0 0-11 82 0c7 0 16 3 21 9 5 5 8 12 8 20 0 17-12 29-28 29-11 0-112 0-112 0-23 0-52-4-81-33l-31-32c-3-2-3-5 0-7 1-1 2-2 3-2 2 0 3 1 4 2l32 32c25 26 51 30 73 30 0 0 59 0 92 0z m217 50c-12 11-29 12-40 1l-69-71c0 0-1 0-1 0-17-17-22-17-40-17l-9 0c-3 0-6-3-6-6 0-3 3-5 6-5l9 0 2 0c18 0 27 1 44 19 1 0 1 0 1 1l71 71c6 6 16 8 25-1 5-4 5-9 6-13 0-4-2-9-5-12l-99-100c-18-18-41-24-67-24l-102 0-4 0c-21 0-56-1-72-17-2-2-2-6 0-8 1-1 3-2 4-2 1 0 3 2 4 3 13 13 46 14 64 14l4 0 102-1c29 0 55 7 74 27l99 100c5 5 8 13 8 20 0 8-3 15-9 21z"/>
<glyph glyph-name="icon-sc-l-added-value-grow-02" unicode="&#57486;" d="M400 294c1-1 1-1 1-2 0-2 1-4 1-6 3-15 3-30 0-44-8-38-39-59-96-53 0 0 0 0 0 0l-24-16c-2-2-4-1-5 1-2 2-1 4 1 5l16 11 0 0 0 3c-1 1-1 3-1 6-2 15-1 32 3 47 10 41 42 62 101 52l1-1 1 0c0 1 2 1 2 0 1 0 1-2 0-2z m-99-92c0-1 0-1 0-2 0-1 0-2 0-3 57-7 85 12 93 47 3 13 3 27 0 40 0 1 0 2 0 3z m-1 5l91 83c-51 8-78-10-88-46-3-12-4-25-3-37z m-62 136c-8 1-13 4-18 10-2 2-3 4-5 7 0 1-1 2-1 3l4 1c0 0 0-1 1-2 1-3 2-5 4-7 5-6 12-9 22-9 17 0 25 8 25 22 0 8-6 13-18 18-2 1-4 1-9 3-18 6-25 12-25 23 0 11 8 19 20 21l0 15 4 0 0-14c1 0 2 0 3 0 11 0 18-4 22-11 2-2 3-5 3-8 1-1 1-2 1-3l-4 0c0 0 0 1-1 3 0 2-1 4-2 6-3 6-10 9-19 9-15 0-23-7-23-18 0-9 6-14 23-19 5-2 6-2 9-3 13-5 20-12 20-22 0-16-10-26-29-26-1 0-2 0-3 0l0-14-4 0z m-133-52l80-74c1 0 1-2 0-2 0-1-2-1-2 0l-83 75c-1 0-2-1-3-1-1-2-2-4-2-6-3-13-4-26-1-39 8-31 39-49 102-46l1 0 22-19c1-1 1-4 0-6-1-1-4-1-6 0l-19 17c-65-3-99 17-108 52-3 14-2 29 1 43 1 2 1 5 2 7 0 1 1 2 1 2l1 2 2 1c0 0 1 0 1 0 0 0 0 0 1 0 0 1 1 1 2 1 36 7 63-2 82-23 14-17 22-40 22-59 0-2-1-4-4-4-2 0-4 2-4 4 0 17-7 38-20 53-16 18-38 26-68 22z m139-127c15 0 24 0 27 0 16 0 29-12 29-28 0-16-14-28-29-28l-84 0c-3 0-4 2-4 4 0 2 1 4 4 4l84 0c11 0 21 9 21 20 0 12-9 20-21 20-3 0-13 0-29 0l0-28c0-1-1-2-2-2-1 0-2 1-2 2l0 28c-7 0-16 0-26 0-2 0-2 0-5 0-12 0-25 0-38 0-13 0-13 0-17 0-33 0-57-8-82-31l-35-32c-2-1-4-1-6 0-1 2-1 4 0 6l35 32c27 25 54 33 88 33 3 0 3 0 17 0 13 0 26 0 38 0 3 0 3 0 5 0 9 0 17 0 24 0l0 100c0 2 2 4 4 4 2 0 4-2 4-4z m110-36c1 0 1 0 1 1l1 1c1 0 1 0 1 1 0 0 1 0 1 0l75 73c11 11 29 11 42-1 12-12 12-30 1-41l-110-105c-21-21-44-29-75-29l-108-1c-1 0-1 0-3 0-15 0-24 0-34-1-18-2-32-6-39-13-2-1-4-1-6 0-1 2-1 4 0 6 9 9 24 13 45 15 10 1 18 1 34 1 2 0 2 0 3 0l108 1c29 0 50 7 70 27l109 105c8 8 8 21-1 29-9 9-22 9-30 1l-77-74c-17-18-14-15-18-18-7-5-13-6-26-6l-6 0c-2 0-4 2-4 4 0 2 2 4 4 4l6 0c12 0 16 1 21 4 3 3 1 0 15 16z m-120 372c58 0 106-48 106-105 0-57-47-103-105-103-57 0-103 46-103 103 0 58 45 105 102 105z m0-8c-52 0-94-44-94-97 0-53 42-95 95-95 54 0 97 42 97 95 0 52-45 97-98 97z"/>
<glyph glyph-name="icon-sc-l-added-value-help" unicode="&#57487;" d="M100 261l30 0c1 0 2-1 2-2 0-2-1-2-2-2l-30 0c0-4 0-8 0-12 0-10 0-20 0-29 0-32 0-57 0-74 0-73 52-122 127-122 2 0 4-2 4-4 0-2-2-4-4-4-79 0-135 52-135 130 0 17 0 42 0 74 0 9 0 19 0 29 0 15 0 31 0 46 0 8 0 8 0 14 0 4 0 4 0 5l0 4 26 0c25 0 41-17 41-42 0-6 0-20 0-41 0-3 0-3 0-6 0-14 0-14 0-25 0-9 0-9 0-11 0-2-2-4-4-4-3 0-4 2-4 4 0 2 0 2 0 11 0 11 0 11 0 25 0 3 0 3 0 6 0 21 0 35 0 41 0 21-13 34-33 34l-18 0c0 0 0-1 0-1 0-6 0-6 0-14 0-10 0-20 0-30z m263 131c6 6 15 10 25 10 19 0 32-15 32-32l0-354c0-2-2-4-4-4-2 0-4 2-4 4l0 354c0 13-10 24-24 24-15 0-25-10-25-24l0-106c0-2-2-4-4-4-2 0-4 2-4 4l0 178c0 13-10 24-24 24-15 0-25-10-25-23l0-179c0-2-1-4-4-4-2 0-4 2-4 4l0 204c0 13-10 24-24 24-14 0-24-10-24-24l0-204c0-2-2-4-4-4-3 0-4 2-4 4l0 178c0 13-10 24-24 24-15 0-25-10-25-23l0-179c0-2-2-4-4-4-2 0-4 2-4 4l0 179c0 17 13 31 32 31 10 0 19-4 25-10l0 4c0 18 13 32 32 32 19 0 32-15 32-32l0-4c6 6 15 10 25 10 19 0 32-15 32-32z m-4-168c1 0 2 0 2-2 0-1-1-2-2-2l-170 0c-1 0-2 1-2 2 0 2 1 2 2 2z"/>
<glyph glyph-name="icon-sc-l-added-value-high-interest-rates" unicode="&#57488;" d="M190 318c0 0-1 0-1 0-11 0-19 4-25 11-2 2-3 4-5 7 0 1-1 2-1 3l4 1c0 0 0-1 1-2 1-3 2-5 4-7 5-6 12-9 22-9 17 0 25 8 25 22 0 8-6 13-18 18-2 1-4 1-9 3-18 6-25 12-25 23 0 13 10 22 27 22 0 0 1 0 1 0l0 14 4 0 0-14c8-1 14-5 17-11 2-2 3-5 3-8 1-1 1-2 1-3l-4 0c0 0 0 1-1 3 0 2-1 4-2 6-3 6-10 9-19 9-15 0-23-7-23-18 0-9 6-14 23-19 5-2 6-2 9-3 13-5 20-12 20-22 0-15-8-24-24-26l0-14-4 0z m-28-130c8 0 16 0 24 0 2 0 2 0 5 0 31 0 52 0 57 0 15 0 28-12 28-28 0-16-13-28-28-28-5 0-19 0-40 0-3 0-3 0-5 0-15 0-15 0-26 0-9 0-9 0-11 0-2 0-4 2-4 4 0 2 2 4 4 4 2 0 2 0 11 0 11 0 11 0 26 0 2 0 2 0 5 0 21 0 35 0 40 0 11 0 20 8 20 20 0 12-9 20-20 20-3 0-10 0-22 0l0-20c0-1-1-2-2-2-1 0-2 1-2 2l0 20c-9 0-19 0-31 0-3 0-3 0-5 0-12 0-25 0-37 0-13 0-13 0-16 0-32 0-56-8-80-31l-34-32c-2-1-4-1-6 0-1 2-1 4 0 6l34 32c26 25 52 33 86 33 3 0 3 0 16 0 0 0 1 0 1 0l126 123c2 2 5 2 6 0l32-38 115 119c2 1 4 1 6 0l57-58 0 118-114 0 34-34c2-1 2-4 1-5-2-2-5-2-6 0l-42 40c-3 3-1 7 3 7l128 0c2 0 4-2 4-4l0-132c0-3-4-5-7-2l-61 61-116-119c-1-2-4-2-6 0l-31 38z m179-30c0 1 0 2 1 3l62 61 14 14c11 11 29 11 41-1 12-12 12-30 1-41l-107-105c-21-21-43-29-74-29l-105-1c-1 0-2 0-4 0-15 0-23 0-32-1-19-2-32-6-39-13-2-1-4-1-6 0-1 2-1 4 0 6 9 8 24 13 44 15 10 1 18 1 33 1 2 0 3 0 4 0l105 1c29 0 48 7 68 27l107 105c8 8 8 21 0 29-10 9-22 9-30 1l-76-74c0-1 0-2-1-3-11-8-17-12-23-14-7-2-11-3-27-3-1 0-1 0-2 0l-7 0c-2 0-4 2-4 4 0 3 2 4 4 4l7 0c1 0 1 0 2 0 15 0 19 1 24 2 5 2 10 5 20 12z m-41 213c0-3-1-4-4-5-2 0-4 2-4 4-1 7-2 13-4 19-13 44-56 74-102 71-52-5-90-52-86-106 4-44 37-79 80-86 3 0 4-2 4-5-1-2-3-3-5-3-47 7-83 46-87 94-4 58 37 109 94 114 49 4 96-29 110-76 2-7 3-14 4-21z"/>
<glyph glyph-name="icon-sc-l-added-value-medical-benefits" unicode="&#57489;" d="M452 266c-1 1-2 2-2 3l0 88c0 13 11 23 25 23 14 0 25-11 25-24l0-122c0-24-8-42-25-60l-60-60c-2-1-12-12-15-15-8-9-13-16-17-23-2-4-3-8-3-12 0-2-2-4-4-4-2 0-4 2-4 4 0 5 1 10 4 16 4 8 10 15 18 24 3 4 14 15 15 16l60 60c16 16 23 32 23 54l0 122c0 9-7 16-17 16-10 0-17-7-17-15l0-82c1-1 2-2 2-3 0-17-1-22-4-27-2-3-1-2-10-12l-3-4c-1-1-4-1-6 0-1 1-1 4 0 6l3 3c8 9 8 9 9 11 2 3 3 6 3 17z m-308-44l-15-15c0-1-2-1-2 0-1 0-1 2 0 2l15 16c-8 7-13 13-15 15-6 6-15 6-22-1-7-7-6-18-1-24 3-3 11-12 23-24 6-6 9-9 17-17 6-6 6-6 7-8 2-2 2-4 0-6-2-1-4-1-6 0-1 2-1 2-7 8-8 8-11 12-16 17-12 13-21 21-23 24-9 9-10 25 0 35 10 10 25 11 34 1 3-3 15-15 33-34 7-8 15-16 22-24 9-9 9-9 11-11 19-18 29-40 29-72l0-40c0-2-2-4-4-4-2 0-4 2-4 4l0 40c0 30-10 49-27 67-2 2-2 2-10 10-8 9-16 17-23 24-6 7-11 12-16 17z m-84 44c0-11 1-14 3-17 1-2 1-2 9-11l3-3c1-2 1-5 0-6-2-1-5-1-6 0l-3 4c-9 10-8 9-10 12-3 5-4 10-4 27 0 1 1 2 2 3l0 82c0 8-7 15-17 15-10 0-17-7-17-16l0-122c0-22 7-38 23-54l60-60c1-1 12-12 15-16 8-9 14-16 18-24 3-6 4-11 4-16 0-2-2-4-4-4-2 0-4 2-4 4 0 4-1 8-3 12-4 7-9 14-17 23-3 3-13 14-14 15l-61 60c-17 18-25 36-25 60l0 122c0 13 11 24 25 24 14 0 25-10 25-23l0-88c0-1-1-2-2-3z m232-202c0-2-2-4-4-4-2 0-4 2-4 4l0 40c0 32 10 54 29 72 2 2 2 2 11 11 7 8 15 16 22 24 18 19 30 31 33 34 9 10 24 9 34-1 10-10 9-26 0-35-2-3-11-11-23-24-8-9-8-9-16-17-6-6-6-6-7-8-2-1-4-1-6 0-2 2-2 4 0 6 1 2 1 2 7 8 8 8 8 8 17 17 12 12 20 21 23 24 5 6 6 17-1 24-7 7-16 7-22 1-3-4-15-16-33-35-7-7-15-15-23-24-8-8-8-8-10-11-17-17-27-36-27-66z m101 145c1 0 1-2 0-2 0-1-2-1-2 0l-16 16c-1 0-1 2 0 2 0 1 2 1 2 0z m-60 184c13 0 23-10 23-23l0-36c0-13-10-23-23-23l-36 0 0-36c0-13-10-23-23-23l-36 0c-13 0-23 10-23 23l0 36-36 0c-13 0-23 10-23 23l0 36c0 13 10 23 23 23l36 0 0 36c0 13 10 23 23 23l36 0c13 0 23-10 23-23l0-36z m0-8l-44 0 0 44c0 8-6 15-15 15l-36 0c-9 0-15-7-15-15l0-44-44 0c-8 0-15-6-15-15l0-36c0-9 7-15 15-15l44 0 0-44c0-8 6-15 15-15l36 0c9 0 15 7 15 15l0 44 44 0c8 0 15 6 15 15l0 36c0 9-7 15-15 15z"/>
<glyph glyph-name="icon-sc-l-added-value-premium" unicode="&#57490;" d="M250 484l-1-3 41-77 4 0 44 75c-3 3-7 5-11 5z m-2 8l79 0c6 0 13-3 17-8 1 0 2 0 2-1 2-1 2-2 2-4 0 0 0 0 0 0l40-77c0-1 0-1 0-2 0 0 0 0 0 0 0-1 0-2-1-2 0 0 0-1 0-1l-139-147-139 147c0 0 0 1 0 1-1 0-1 1-1 2 0 0 0 0 0 0 0 1 0 1 0 2l40 77c0 0 0 0 0 0 0 2 0 3 2 4 0 1 1 1 2 1 4 5 11 8 17 8l71 0c0 0 0 0 0 0l8 0c0 0 0 0 0 0z m-10-8l-69 0c-4 0-8-2-11-5l42-71 39 73z m-85-13l-34-67 74 0z m224-67l-34 67-40-67z m-81-8l-8 0c0 0 0 0 0 0l-167 0 120-127-36 114c0 1 0 3 1 3 2 0 3 0 3-1l38-122 1-1 1 1 38 122c0 1 1 1 2 1 1 0 2-2 2-3l-36-114 120 127-79 0c0 0 0 0 0 0z m-15 8l-37 68-37-68z m-81-8z m42-224l0-28c0-1-1-2-2-2-1 0-2 1-2 2l0 28c-9 0-19 0-31 0-3 0-3 0-5 0-14 0-27 0-41 0-14 0-14 0-18 0-34 0-60-9-87-38l-37-41c-2-1-4-1-6 0-1 2-1 4 0 6l37 40c29 31 57 41 93 41 4 0 4 0 18 0 14 0 27 0 41 0 2 0 2 0 5 0 35 0 57 0 63 0 17 0 30-14 30-34 0-19-14-34-30-34-6 0-21 0-44 0-3 0-3 0-6 0-15 0-15 0-28 0-10 0-10 0-12 0-2 0-4 2-4 4 0 2 2 4 4 4 2 0 2 0 12 0 13 0 13 0 28 0 3 0 3 0 6 0 23 0 38 0 44 0 11 0 22 11 22 26 0 15-10 26-22 26-4 0-13 0-28 0z m120-28c0 1 1 1 1 2 3 2 3 2 13 13 14 13 14 13 29 28 23 22 38 37 42 41 11 11 30 11 43-2 13-12 13-32 1-43l-116-114c-23-23-47-32-80-32l-115-1c-1 0-2 0-4 0-16 0-24 0-35-1-20-2-34-6-42-14-2-1-4-1-6 0-1 2-1 4 0 6 10 9 26 14 47 16 11 1 20 1 37 1 2 0 2 0 3 0l115 1c31 0 53 8 74 29l117 115c8 8 9 22-1 31-10 10-24 10-33 2-4-4-19-19-41-40-16-16-16-16-29-29-6-6-8-8-10-10 0-1-1-1-1-2-20-19-18-17-23-20-7-4-13-5-29-5l-7 0c-2 0-4 2-4 4 0 2 2 4 4 4l7 0c15 0 20 1 25 4 4 2 3 1 18 16z m-114 298c6 0 10-4 10-10 0-6-4-10-10-10-6 0-10 4-10 10 0 6 4 10 10 10z m0-4c-3 0-6-3-6-6 0-3 3-6 6-6 3 0 6 3 6 6 0 3-3 6-6 6z"/>
<glyph glyph-name="icon-sc-l-added-value-relationship-manager" unicode="&#57491;" d="M61 206l-5-8c-1-2-4-3-5-2l-37 19c-2 1-3 3-2 5 1 2 4 3 6 2l33-17 80 137-118 103c-1 1-1 4 0 6 1 1 4 1 6 0l120-105c1-1 1-3 0-5l-1-3c10-5 17-4 64 1 2 1 4 1 6 1 2 0 4-1 4-4 0-2-1-4-4-4-1 0-3 0-5-1-49-5-56-6-69 0 0 0 0 0 0 0l-70-119c1 0 2 0 2-1l23-15 12 10c10 9 25 7 34-4 6-8 7-20 1-29l12 10c11 8 26 6 35-4 3-5 5-11 5-16 9 3 20 0 27-8 5-7 6-15 3-23 8 0 16-3 21-10 6-8 7-19 2-28 0 0 1 0 1-1 1 0 2-1 4-2 2-2 5-4 8-5l0 0c1-2 3-3 4-3l7-5c7-5 7-5 10-7 7-5 17-3 22 4 5 8 3 19-4 24l-46 34c-2 1-2 4-1 5 2 2 4 3 6 1l4-3c0 1 0 1 0 2 2 1 4 2 6 1l64-46c7-5 17-3 23 4 5 8 3 18-4 23l-69 51c-2 1-2 4-1 5 1 1 2 2 3 2 0 1 0 3 1 4 1 2 3 2 5 1l79-57c8-6 18-4 24 4 5 8 3 19-4 24l-80 57c-1 1-1 2-1 3l-15 11c-1 1-2 3-1 5 2 2 4 2 6 1l78-56c8-5 18-3 23 4 5 8 3 19-4 24l-101 85-5 3c-1-1-2-1-3-1-3-2-7-3-10-4-8-2-15-4-21-5-6-1-11-1-16 0-1 0-7 0-6 0-13 2-18 3-23 5-7 4-10 11-7 19 4 9 12 14 33 23 1 1 1 1 3 1 13 6 19 9 23 13 12 10 28 7 60-6 2 0 3-1 6-2 2-1 4-2 5-2 3-2 8-2 13-1 6 1 13 3 19 6 4 1 7 3 9 4 2 1 3 2 4 2 2 1 4 1 5-1 1-2 1-4-1-6-1 0-2-1-4-2-3-1-6-3-9-5-8-3-15-5-21-6-7-1-13-1-18 1-1 1-3 1-5 2-3 1-5 2-6 3-28 12-43 14-52 7-5-5-11-8-25-14-1-1-1-1-2-1-19-8-27-13-29-19-2-4-1-7 2-8 4-2 9-3 21-5-1 0 5 0 6-1 4 0 9 0 14 1 6 1 12 2 19 4 4 2 7 3 10 4 2 1 3 2 4 2 1 0 3 0 4 0l7-5 102-85c11-8 13-23 6-34-5-6-11-10-17-11l4-3c11-8 14-24 6-36-7-11-23-14-34-6l-6 4c8-8 9-21 2-30-8-12-23-14-34-6l-17 12c5-8 5-20 0-28-8-12-23-14-34-6l-16 11c-2 1-3 2-5 3l0 0c-2 2-5 4-8 5-1 2-3 2-3 3-1 0-1 1-2 1 0 0 0 0-1-1l-24-21c-10-9-25-7-34 4-5 7-6 16-4 24-9-4-21-1-28 7-3 4-5 8-5 13l0-1c-11-8-26-6-35 4-6 7-7 17-3 25-10-4-22-2-29 8-8 10-6 26 4 35l6 5-21 15c-1 0-1 1-1 1z m29-20l-8-7c-7-6-8-17-2-25 5-7 15-8 22-2l24 21c7 6 8 17 2 25-5 7-15 8-22 2l-12-10c0-1 0-2 0-2-1-2-3-2-4-2z m95-33c-1-3-3-6-6-8l-30-24c-2-5-1-11 3-15 5-7 16-8 23-3l31 25c7 6 8 15 2 22-5 7-15 8-23 3z m1-54c-7-6-8-17-2-25 5-7 15-8 22-2l24 21c7 6 8 17 2 25-5 7-15 8-22 2z m-72 46c-7-6-8-16-2-23 5-7 16-8 23-2l39 31c7 6 8 16 2 23-5 7-16 8-23 2z m305 28c-2-2-5-1-6 0-2 2-1 5 1 6l40 32c1 2 4 1 5-1 2-1 1-4 0-5z m80 256l-78-69 77-142c1-2 0-4-2-6-2-1-4 0-5 2l-79 145c0 2 0 4 1 5l80 71c2 1 5 1 6 0 1-2 1-5 0-6z m-405-92l4-2-56-88-4 2z"/>
<glyph glyph-name="icon-sc-l-added-value-special-care" unicode="&#57492;" d="M366 224c0 1 0 1 1 1 0 1 0 1 1 1 5 6 9 10 11 11 9 9 24 9 34-1 10-9 9-24 0-33-8-8-8-8-23-23-17-18-17-18-23-24-2-1-4-1-6 0-2 2-2 4 0 6 6 6 6 6 24 24 15 14 15 14 23 22 5 6 6 16-1 23-7 7-17 7-22 1-2-2-6-5-11-11l11-12c1 0 1-2 0-2 0-1-2-1-2 0l-12 11c-5-5-11-11-19-19-7-7-15-15-23-23-8-8-8-8-10-10-18-17-27-35-27-63l0-39c0-2-2-4-4-4-2 0-4 2-4 4l0 39c0 30 10 51 29 68 2 3 2 3 11 11 7 8 15 15 22 23 8 8 15 14 20 19z m92 44c0-14 0-18-4-23-1-3-1-2-9-12l-4-4c-1-1-4-1-5 0-2 1-2 4-1 6l4 3c8 9 7 9 8 11 3 4 3 7 3 23 0 0 0 1 0 1l0 84c0 13 11 23 25 23 14 0 25-11 25-24l0-122c0-24-8-42-25-60l-60-60c-2-1-12-12-15-15-8-9-13-16-17-23-2-4-3-8-3-12 0-2-2-4-4-4-2 0-4 2-4 4 0 5 1 10 4 16 4 8 10 15 18 24 3 4 14 15 15 16l60 60c16 16 23 32 23 54l0 122c0 9-7 16-17 16-10 0-17-7-17-15l0-88c0 0 0 0 0-1z m-321-46l-16-15c0-1-2-1-2 0-1 0-1 2 0 2l15 16c-3 3-5 6-7 7-5 6-15 6-22-1-7-7-6-17-1-23 3-2 11-10 23-22 9-9 9-9 17-17 6-6 6-6 7-7 2-2 2-4 0-6-2-1-4-1-6 0-1 2-1 2-7 8-7 7-7 7-16 16-12 12-21 20-23 23-9 9-10 24 0 33 10 10 25 10 34 1 3-3 15-14 33-32 7-8 15-15 22-23 9-8 9-8 11-10 19-18 29-39 29-69l0-39c0-2-2-4-4-4-2 0-4 2-4 4l0 39c0 28-9 46-27 63-2 2-2 2-10 10-8 8-16 16-23 23-10 10-17 17-23 23z m-83 46c0 1 0 1 0 1l0 88c0 8-7 15-17 15-10 0-17-7-17-16l0-122c0-22 7-38 23-54l60-60c1-1 12-12 15-16 8-9 14-16 18-24 3-6 4-11 4-16 0-2-2-4-4-4-2 0-4 2-4 4 0 4-1 8-3 12-4 7-9 14-17 23-3 3-13 14-14 15l-61 60c-17 18-25 36-25 60l0 122c0 13 11 24 25 24 14 0 25-10 25-23l0-84c0-1 0-1 0-1 0-16 0-19 3-23 1-3 0-2 8-11l4-4c1-1 1-4-1-5-1-2-4-2-5 0l-3 4c-9 9-9 9-10 11-4 6-4 10-4 24z m236 176c31 0 58-26 58-57 0-12-4-23-11-32-4-6-19-21-41-42-1-1-1-1-2-2-9-9-20-19-30-29-3-3-7-6-10-9-1-2-3-3-3-4l-3-3-3 3c-1 1-2 2-4 4-3 2-6 6-9 9-11 10-21 20-30 29-1 1-1 1-2 2-22 21-37 36-41 42-7 9-11 20-11 32 0 32 25 57 56 57 17 0 33-7 44-19 10 12 25 19 42 19z m-41-166c3 3 6 6 10 10 10 10 20 19 29 29 1 1 1 1 2 1 22 22 37 37 40 41 7 9 10 18 10 28 0 27-23 49-50 49-16 0-30-7-39-20l-3-4-4 4c-9 12-24 20-40 20-27 0-48-22-48-49 0-10 3-20 9-28 4-4 19-19 41-41 1-1 1-1 1-1 10-10 20-19 30-29 4-4 7-7 10-10 0 0 1 0 1 0 0 0 1 0 1 0z"/>
<glyph glyph-name="icon-sc-l-advice" unicode="&#57493;" d="M292 372l0 37c0 10-9 19-20 19l-235 0c-10 0-17-8-17-19l0-147c0-11 7-18 17-18l30 0 0-51c0-5 5-7 11-4 5 3 42 44 48 53 1 1 3 2 5 1 2-1 3-4 2-5-6-11-45-53-52-56-9-5-22-1-22 11l0 43-22 0c-15 0-25 10-25 26l0 147c0 15 10 27 25 27l235 0c15 0 28-12 28-27l0-37 172 0c15 0 28-12 28-27l0-188c0-15-12-26-28-26l-24 0 0-42c0-12-12-16-22-11-6 3-40 40-49 53l-180 0c-15 0-25 11-25 26l0 188c0 16 10 27 25 27z m180-8l-275 0c-10 0-17-8-17-19l0-188c0-11 7-18 17-18l184 0 2-2c5-9 42-49 47-52 5-2 10-1 10 4l0 50 32 0c11 0 20 8 20 18l0 188c0 11-9 19-20 19z m-262-196l-4 0 0 168 4 0z m-168 104l-4 0 0 128 4 0z m325-61l-55 59-77-73c-2-1-4-1-6 0-1 2-1 4 0 6l81 76c1 1 4 1 5 0l55-60 44 48c2 1 5 1 6 0l32-32 0 65-63 0 18-17c1-2 1-5 0-6-2-2-4-2-6 0l-25 24c-3 3-1 7 3 7l77 0c2 0 4-2 4-4l0-79c0-4-4-5-7-3l-36 36-44-47c-2-2-5-2-6 0z"/>
<glyph glyph-name="icon-sc-l-approved" unicode="&#57494;" d="M84 268l172 0c16 0 29-9 36-21l0 171c0 18-15 34-33 34l-175 0z m0-8l0-248-8 0 0 488 8 0 0-40 175 0c22 0 41-19 41-42l0-46c0 0 0 0 0 0l142 0-77-76 77-76-154 0 0 9c0 17-14 31-32 31z m216-32l122 0-69 68 69 68-122 0c0 0 0 0 0 0z m-190 198l4 0 0-140-4 0z"/>
<glyph glyph-name="icon-sc-l-atm-branches-and-bank-code-finder" unicode="&#57495;" d="M331 87c-4 0-8 2-11 6-1 2-2 4-2 6l4 1c1-1 1-3 2-4 2-3 5-4 8-4 7 0 10 3 10 9 0 4-3 7-7 9-1 0-2 0-4 1-8 4-12 7-12 14 0 6 4 11 11 12l0 10 4 0 0-10c5 0 8-3 9-6 2-3 2-5 2-7l-5 0c0 1 0 3-1 5-1 2-3 3-7 3-5 0-8-3-8-7 0-4 2-7 9-9 2-1 3-1 4-2 6-3 9-7 9-13 0-7-4-13-11-14l0-10-4 0z m9 360c0 1 0 1 0 1 0 2 2 4 4 4l55 0c20 0 37-17 37-37l0-310c0-20-17-37-37-37l-9 0c-1 0-1 0-2 1l0-57-112 0 0 200-12 0c-2 0-4 2-4 4 0 2 2 4 4 4l136 0c2 0 4-2 4-4 0-2-2-4-4-4l-12 0 0-137c1 1 1 1 2 1l9 0c16 0 29 13 29 29l0 310c0 16-13 29-29 29l-55 0c-1 0-2 1-3 1 4-8 6-17 7-27l54 0 0-172-284 0 0 172 54 0c1 9 3 18 6 26l-57 0c-16 0-29-13-29-29l0-310c0-16 13-29 29-29l151 0c2 0 4-2 4-4 0-2-2-4-4-4l-151 0c-20 0-37 17-37 37l0 310c0 20 17 37 37 37l59 0c1 0 1 0 1 0 15 28 44 48 77 48 36 0 68-22 82-53z m8-33c0-1 0-2 0-2 0-13-3-25-9-36-2-4-4-8-6-11-1-2-2-3-3-4l-70-96-4 5-67 92c0 0-1 2-2 4-2 4-4 7-6 12-5 9-7 18-9 26 0 3 0 5 0 8 0 0 0 1 0 2l-50 0 0-164 276 0 0 164z m32-394l0 192-96 0 0-192z m-76 162c-1 0-2 1-2 2 0 1 1 2 2 2l48 0c1 0 2-1 2-2 0-1-1-2-2-2z m-176 28c6 0 10-4 10-10 0-6-4-10-10-10-6 0-10 4-10 10 0 6 4 10 10 10z m0-4c-3 0-6-3-6-6 0-3 3-6 6-6 3 0 6 3 6 6 0 3-3 6-6 6z m40 4c6 0 10-4 10-10 0-6-4-10-10-10-6 0-10 4-10 10 0 6 4 10 10 10z m0-4c-3 0-6-3-6-6 0-3 3-6 6-6 3 0 6 3 6 6 0 3-3 6-6 6z m-40-28c6 0 10-4 10-10 0-6-4-10-10-10-6 0-10 4-10 10 0 6 4 10 10 10z m0-4c-3 0-6-3-6-6 0-3 3-6 6-6 3 0 6 3 6 6 0 3-3 6-6 6z m40 4c6 0 10-4 10-10 0-6-4-10-10-10-6 0-10 4-10 10 0 6 4 10 10 10z m0-4c-3 0-6-3-6-6 0-3 3-6 6-6 3 0 6 3 6 6 0 3-3 6-6 6z m-40-36c6 0 10-4 10-10 0-6-4-10-10-10-6 0-10 4-10 10 0 6 4 10 10 10z m0-4c-3 0-6-3-6-6 0-3 3-6 6-6 3 0 6 3 6 6 0 3-3 6-6 6z m40 4c6 0 10-4 10-10 0-6-4-10-10-10-6 0-10 4-10 10 0 6 4 10 10 10z m0-4c-3 0-6-3-6-6 0-3 3-6 6-6 3 0 6 3 6 6 0 3-3 6-6 6z m32 76c6 0 10-4 10-10 0-6-4-10-10-10-6 0-10 4-10 10 0 6 4 10 10 10z m0-4c-3 0-6-3-6-6 0-3 3-6 6-6 3 0 6 3 6 6 0 3-3 6-6 6z m0-28c6 0 10-4 10-10 0-6-4-10-10-10-6 0-10 4-10 10 0 6 4 10 10 10z m0-4c-3 0-6-3-6-6 0-3 3-6 6-6 3 0 6 3 6 6 0 3-3 6-6 6z m0-36c6 0 10-4 10-10 0-6-4-10-10-10-6 0-10 4-10 10 0 6 4 10 10 10z m0-4c-3 0-6-3-6-6 0-3 3-6 6-6 3 0 6 3 6 6 0 3-3 6-6 6z m124 232c1 1 1 2 3 4 1 2 3 6 5 9 5 10 8 21 8 33 0 43-37 80-82 80-43 0-78-36-78-80 0-2 0-4 0-7 1-7 4-16 8-24 2-4 4-8 5-11 2-2 2-3 3-4l64-87z m-64 61c8 0 15-7 15-15 0-8-7-15-15-15-8 0-15 7-15 15 0 8 7 15 15 15z m0-6c-5 0-9-4-9-9 0-5 4-9 9-9 5 0 9 4 9 9 0 5-4 9-9 9z"/>
<glyph glyph-name="icon-sc-l-atm-convenient-withdrawal" unicode="&#57496;" d="M334 105c-5 1-10 3-13 6-2 3-3 5-3 7l4 1c1-1 1-3 3-4 3-3 6-5 11-5 9 0 14 4 14 11 0 4-3 7-10 9-1 1-2 1-5 2-11 4-15 8-15 15 0 7 5 12 14 13l0 8 4 0 0-8c6 0 10-3 12-7 2-2 2-5 2-7l-4 0c0 1-1 3-2 5-1 3-4 4-10 4-7 0-11-3-11-8 0-5 3-7 12-10 3-1 4-2 5-2 8-3 12-7 12-14 0-9-5-15-16-16l0-8-4 0z m-58-29l0 160-12 0c-2 0-4 2-4 4 0 2 2 4 4 4l144 0c2 0 4-2 4-4 0-2-2-4-4-4l-4 0 0-160 7 0c18 0 33 15 33 33l0 350c0 18-15 33-33 33l-302 0c-18 0-33-15-33-33l0-350c0-18 15-33 33-33l166 0c1 0 1 0 1 0z m0-8c0 0 0 0-1 0l-166 0c-23 0-41 18-41 41l0 350c0 23 18 41 41 41l302 0c23 0 41-18 41-41l0-350c0-23-18-41-41-41l-7 0 0-56-128 0z m-174 194l0 196 308 0 0-196z m4 4l300 0 0 188-300 0z m290-246l0 216-112 0 0-216z m-84 178c-1 0-2 1-2 2 0 1 1 2 2 2l56 0c1 0 2-1 2-2 0-1-1-2-2-2z m-196 44c8 0 14-6 14-14 0-8-6-14-14-14-8 0-14 6-14 14 0 8 6 14 14 14z m0-4c-5 0-10-5-10-10 0-5 5-10 10-10 5 0 10 5 10 10 0 5-5 10-10 10z m48 4c8 0 14-6 14-14 0-8-6-14-14-14-8 0-14 6-14 14 0 8 6 14 14 14z m0-4c-5 0-10-5-10-10 0-5 5-10 10-10 5 0 10 5 10 10 0 5-5 10-10 10z m-48-36c8 0 14-6 14-14 0-8-6-14-14-14-8 0-14 6-14 14 0 8 6 14 14 14z m0-4c-5 0-10-5-10-10 0-5 5-10 10-10 5 0 10 5 10 10 0 5-5 10-10 10z m48 4c8 0 14-6 14-14 0-8-6-14-14-14-8 0-14 6-14 14 0 8 6 14 14 14z m0-4c-5 0-10-5-10-10 0-5 5-10 10-10 5 0 10 5 10 10 0 5-5 10-10 10z m-48-44c8 0 14-6 14-14 0-8-6-14-14-14-8 0-14 6-14 14 0 8 6 14 14 14z m0-4c-5 0-10-5-10-10 0-5 5-10 10-10 5 0 10 5 10 10 0 5-5 10-10 10z m48 4c8 0 14-6 14-14 0-8-6-14-14-14-8 0-14 6-14 14 0 8 6 14 14 14z m0-4c-5 0-10-5-10-10 0-5 5-10 10-10 5 0 10 5 10 10 0 5-5 10-10 10z m40 92c8 0 14-6 14-14 0-8-6-14-14-14-8 0-14 6-14 14 0 8 6 14 14 14z m0-4c-5 0-10-5-10-10 0-5 5-10 10-10 5 0 10 5 10 10 0 5-5 10-10 10z m0-36c8 0 14-6 14-14 0-8-6-14-14-14-8 0-14 6-14 14 0 8 6 14 14 14z m0-4c-5 0-10-5-10-10 0-5 5-10 10-10 5 0 10 5 10 10 0 5-5 10-10 10z m0-44c8 0 14-6 14-14 0-8-6-14-14-14-8 0-14 6-14 14 0 8 6 14 14 14z m0-4c-5 0-10-5-10-10 0-5 5-10 10-10 5 0 10 5 10 10 0 5-5 10-10 10z m24 193c-2 0-3 1-4 1-1 0-2 1-3 1-1 1-2 2-2 3-1 1-1 2-1 3 0 2 0 3 1 4 1 1 1 2 2 3 2 0 3 1 4 1 2 1 3 1 5 1 1 0 2 0 3 1 1 0 1 0 2 0 1 1 1 1 1 1 1 1 1 1 1 2 0 2-1 3-2 4-1 1-2 1-4 1-2 0-4-1-5-1-1-1-2-3-2-4l-4 0c0 1 0 2 0 3 1 1 2 2 2 3 1 1 3 1 4 2 1 0 3 0 5 0 1 0 2 0 4 0 1 0 2-1 3-1 1-1 2-2 2-3 1-1 1-3 1-5l0-13c0-1 1-2 1-2 0-1 1-1 2 0l0 0 0-4c0 0 0 0-1 0 0 0-1 0-1 0-2 0-3 0-3 1-1 1-2 2-2 3-1-1-1-1-2-2 0 0-1-1-2-1 0-1-1-1-2-1-1 0-2-1-3-1z m1 4c1 0 2 0 3 1 1 0 2 1 3 1 1 1 1 2 1 3 1 1 1 1 1 2l0 5c-1-1-2-1-3-1-1-1-2-1-3-1-1 0-2-1-3-1-1 0-2 0-3-1 0 0-1-1-1-1-1-1-1-2-1-3 0 0 0-1 1-2 0 0 0-1 1-1 0-1 1-1 2-1 0 0 1 0 2 0z m17 25l5 0 0 9 4 0 0-9 6 0 0-4-6 0 0-17c0-1 1-2 1-3 1 0 1 0 2 0 1 0 1 0 1 0 1 0 1 0 2 0l0 0 0-4c-2 0-3 0-4 0-2 0-4 0-5 1-1 1-1 2-1 4l0 19-5 0z m21 0l4 0 0-4 0 0c1 1 2 2 4 3 1 1 3 1 5 1 1 0 3 0 4-1 1-1 2-2 3-4 1 2 2 3 4 4 1 1 3 1 5 1 2 0 4 0 6-2 1-1 2-4 2-7l0-19-5 0 0 19c0 2 0 3-1 4-1 1-2 1-4 1-1 0-1 0-2 0-1 0-2-1-2-2-1 0-1-1-2-2 0-1 0-2 0-3l0-17-5 0 0 19c0 2 0 3-1 4-1 1-2 1-4 1-1 0-1 0-2 0-1 0-2-1-2-2-1 0-2-1-2-2 0-1-1-2-1-3l0-17-4 0z"/>
<glyph glyph-name="icon-sc-l-atm-easy-access-cash" unicode="&#57497;" d="M334 102c-5 0-10 2-13 6-2 2-3 4-3 6l4 1c1-1 1-2 3-4 3-3 6-5 11-5 9 0 14 4 14 11 0 4-3 6-10 9-1 0-2 0-5 1-11 4-15 7-15 14 0 8 5 13 14 13l0 6 4 0 0-6c6 0 10-2 12-6 2-3 2-5 2-7l-4 0c0 1-1 3-2 4-1 3-4 5-10 5-7 0-11-4-11-9 0-4 3-6 12-9 3-1 4-1 5-2 8-3 12-7 12-13 0-9-5-15-16-15l0-6-4 0z m-58-26l0 160-12 0c-2 0-4 2-4 4 0 2 2 4 4 4l144 0c2 0 4-2 4-4 0-2-2-4-4-4l-4 0 0-160 7 0c18 0 33 15 33 33l0 350c0 18-15 33-33 33l-302 0c-18 0-33-15-33-33l0-350c0-18 15-33 33-33l166 0c1 0 1 0 1 0z m0-8c0 0 0 0-1 0l-166 0c-23 0-41 18-41 41l0 350c0 23 18 41 41 41l302 0c23 0 41-18 41-41l0-350c0-23-18-41-41-41l-7 0 0-56-128 0z m-174 202l0 196 308 0 0-196z m304 4l0 188-300 0 0-188z m-10-254l0 216-112 0 0-216z m-84 186c-1 0-2 1-2 2 0 1 1 2 2 2l56 0c1 0 2-1 2-2 0-1-1-2-2-2z m-196 36c8 0 14-6 14-14 0-8-6-14-14-14-8 0-14 6-14 14 0 8 6 14 14 14z m0-4c-5 0-10-5-10-10 0-5 5-10 10-10 5 0 10 5 10 10 0 5-5 10-10 10z m48 4c8 0 14-6 14-14 0-8-6-14-14-14-8 0-14 6-14 14 0 8 6 14 14 14z m0-4c-5 0-10-5-10-10 0-5 5-10 10-10 5 0 10 5 10 10 0 5-5 10-10 10z m-48-36c8 0 14-6 14-14 0-8-6-14-14-14-8 0-14 6-14 14 0 8 6 14 14 14z m0-4c-5 0-10-5-10-10 0-5 5-10 10-10 5 0 10 5 10 10 0 5-5 10-10 10z m48 4c8 0 14-6 14-14 0-8-6-14-14-14-8 0-14 6-14 14 0 8 6 14 14 14z m0-4c-5 0-10-5-10-10 0-5 5-10 10-10 5 0 10 5 10 10 0 5-5 10-10 10z m-48-44c8 0 14-6 14-14 0-8-6-14-14-14-8 0-14 6-14 14 0 8 6 14 14 14z m0-4c-5 0-10-5-10-10 0-5 5-10 10-10 5 0 10 5 10 10 0 5-5 10-10 10z m48 4c8 0 14-6 14-14 0-8-6-14-14-14-8 0-14 6-14 14 0 8 6 14 14 14z m0-4c-5 0-10-5-10-10 0-5 5-10 10-10 5 0 10 5 10 10 0 5-5 10-10 10z m40 92c8 0 14-6 14-14 0-8-6-14-14-14-8 0-14 6-14 14 0 8 6 14 14 14z m0-4c-5 0-10-5-10-10 0-5 5-10 10-10 5 0 10 5 10 10 0 5-5 10-10 10z m0-36c8 0 14-6 14-14 0-8-6-14-14-14-8 0-14 6-14 14 0 8 6 14 14 14z m0-4c-5 0-10-5-10-10 0-5 5-10 10-10 5 0 10 5 10 10 0 5-5 10-10 10z m0-44c8 0 14-6 14-14 0-8-6-14-14-14-8 0-14 6-14 14 0 8 6 14 14 14z m0-4c-5 0-10-5-10-10 0-5 5-10 10-10 5 0 10 5 10 10 0 5-5 10-10 10z m15 219l25-27 57 61 6-6-63-67-31 34z"/>
<glyph glyph-name="icon-sc-l-atm-flexibility-deposit-withdrawal" unicode="&#57498;" d="M341 160c4-1 7-4 9-7 2-2 2-5 2-7l-4 0c0 1 0 3-1 5-2 3-5 5-11 5-7 0-12-4-12-9 0-5 3-8 13-11 3-1 3-1 5-2 8-3 12-7 12-13 0-8-5-14-13-15l0-8-4 0 0 7c0 0-1 0-1 0-6 0-11 3-14 7-2 2-3 4-4 6l4 1c0-1 1-3 3-5 2-3 6-5 11-5 10 0 14 5 14 12 0 4-3 7-10 10-1 0-2 0-5 1-10 4-15 8-15 15 0 8 7 13 16 13 0 0 1 0 1 0l0 7 4 0z m63-92l0-56-128 0 0 56-167 0c-23 0-41 18-41 41l0 350c0 23 18 41 41 41l302 0c23 0 41-18 41-41l0-350c0-23-18-41-41-41z m0 8l7 0c18 0 33 15 33 33l0 350c0 18-15 33-33 33l-302 0c-18 0-33-15-33-33l0-350c0-18 15-33 33-33l167 0 0 160-12 0c-2 0-4 2-4 4 0 2 2 4 4 4l144 0c2 0 4-2 4-4 0-2-2-4-4-4l-4 0z m-302 186l0 196 308 0 0-196z m4 4l300 0 0 188-300 0z m290-246l0 216-112 0 0-216z m-280 222c8 0 14-6 14-14 0-8-6-14-14-14-8 0-14 6-14 14 0 8 6 14 14 14z m0-4c-5 0-10-5-10-10 0-5 5-10 10-10 5 0 10 5 10 10 0 5-5 10-10 10z m48 4c8 0 14-6 14-14 0-8-6-14-14-14-8 0-14 6-14 14 0 8 6 14 14 14z m0-4c-5 0-10-5-10-10 0-5 5-10 10-10 5 0 10 5 10 10 0 5-5 10-10 10z m-48-36c8 0 14-6 14-14 0-8-6-14-14-14-8 0-14 6-14 14 0 8 6 14 14 14z m0-4c-5 0-10-5-10-10 0-5 5-10 10-10 5 0 10 5 10 10 0 5-5 10-10 10z m48 4c8 0 14-6 14-14 0-8-6-14-14-14-8 0-14 6-14 14 0 8 6 14 14 14z m0-4c-5 0-10-5-10-10 0-5 5-10 10-10 5 0 10 5 10 10 0 5-5 10-10 10z m-48-44c8 0 14-6 14-14 0-8-6-14-14-14-8 0-14 6-14 14 0 8 6 14 14 14z m0-4c-5 0-10-5-10-10 0-5 5-10 10-10 5 0 10 5 10 10 0 5-5 10-10 10z m48 4c8 0 14-6 14-14 0-8-6-14-14-14-8 0-14 6-14 14 0 8 6 14 14 14z m0-4c-5 0-10-5-10-10 0-5 5-10 10-10 5 0 10 5 10 10 0 5-5 10-10 10z m40 92c8 0 14-6 14-14 0-8-6-14-14-14-8 0-14 6-14 14 0 8 6 14 14 14z m0-4c-5 0-10-5-10-10 0-5 5-10 10-10 5 0 10 5 10 10 0 5-5 10-10 10z m0-36c8 0 14-6 14-14 0-8-6-14-14-14-8 0-14 6-14 14 0 8 6 14 14 14z m0-4c-5 0-10-5-10-10 0-5 5-10 10-10 5 0 10 5 10 10 0 5-5 10-10 10z m0-44c8 0 14-6 14-14 0-8-6-14-14-14-8 0-14 6-14 14 0 8 6 14 14 14z m0-4c-5 0-10-5-10-10 0-5 5-10 10-10 5 0 10 5 10 10 0 5-5 10-10 10z m108 48c-1 0-2 1-2 2 0 1 1 2 2 2l48 0c1 0 2-1 2-2 0-1-1-2-2-2z"/>
<glyph glyph-name="icon-sc-l-atm-free-withdrawal" unicode="&#57499;" d="M342 97c-5 1-10 3-13 6-2 3-3 5-3 7l4 1c1-1 1-3 3-4 3-3 6-5 11-5 9 0 14 4 14 11 0 4-3 7-10 9-1 1-2 1-5 2-11 4-15 8-15 15 0 7 5 12 14 13l0 8 4 0 0-8c6 0 10-3 12-7 2-2 2-5 2-7l-4 0c0 1-1 3-2 5-1 3-4 4-10 4-7 0-11-3-11-8 0-5 3-7 12-10 3-1 4-2 5-2 8-3 12-7 12-14 0-9-5-15-16-16l0-8-4 0z m-58 101l0-178 112 0 0 178z m0 4l112 0 0 34-112 0z m120-126l7 0c18 0 33 15 33 33l0 350c0 18-15 33-33 33l-302 0c-18 0-33-15-33-33l0-350c0-18 15-33 33-33l166 0c1 0 1 0 1 0l0 160-12 0c-2 0-4 2-4 4 0 2 2 4 4 4l144 0c2 0 4-2 4-4 0-2-2-4-4-4l-4 0z m-128-8c0 0 0 0-1 0l-166 0c-23 0-41 18-41 41l0 350c0 23 18 41 41 41l302 0c23 0 41-18 41-41l0-350c0-23-18-41-41-41l-7 0 0-56-128 0z m-174 194l0 196 308 0 0-196z m4 4l300 0 0 188-300 0z m206-220c-1 0-2 1-2 2 0 1 1 2 2 2l56 0c1 0 2-1 2-2 0-1-1-2-2-2z m-196 188c8 0 14-6 14-14 0-8-6-14-14-14-8 0-14 6-14 14 0 8 6 14 14 14z m0-4c-5 0-10-5-10-10 0-5 5-10 10-10 5 0 10 5 10 10 0 5-5 10-10 10z m48 4c8 0 14-6 14-14 0-8-6-14-14-14-8 0-14 6-14 14 0 8 6 14 14 14z m0-4c-5 0-10-5-10-10 0-5 5-10 10-10 5 0 10 5 10 10 0 5-5 10-10 10z m-48-36c8 0 14-6 14-14 0-8-6-14-14-14-8 0-14 6-14 14 0 8 6 14 14 14z m0-4c-5 0-10-5-10-10 0-5 5-10 10-10 5 0 10 5 10 10 0 5-5 10-10 10z m48 4c8 0 14-6 14-14 0-8-6-14-14-14-8 0-14 6-14 14 0 8 6 14 14 14z m0-4c-5 0-10-5-10-10 0-5 5-10 10-10 5 0 10 5 10 10 0 5-5 10-10 10z m-48-36c8 0 14-6 14-14 0-8-6-14-14-14-8 0-14 6-14 14 0 8 6 14 14 14z m0-4c-5 0-10-5-10-10 0-5 5-10 10-10 5 0 10 5 10 10 0 5-5 10-10 10z m48 4c8 0 14-6 14-14 0-8-6-14-14-14-8 0-14 6-14 14 0 8 6 14 14 14z m0-4c-5 0-10-5-10-10 0-5 5-10 10-10 5 0 10 5 10 10 0 5-5 10-10 10z m40 84c8 0 14-6 14-14 0-8-6-14-14-14-8 0-14 6-14 14 0 8 6 14 14 14z m0-4c-5 0-10-5-10-10 0-5 5-10 10-10 5 0 10 5 10 10 0 5-5 10-10 10z m0-36c8 0 14-6 14-14 0-8-6-14-14-14-8 0-14 6-14 14 0 8 6 14 14 14z m0-4c-5 0-10-5-10-10 0-5 5-10 10-10 5 0 10 5 10 10 0 5-5 10-10 10z m0-36c8 0 14-6 14-14 0-8-6-14-14-14-8 0-14 6-14 14 0 8 6 14 14 14z m0-4c-5 0-10-5-10-10 0-5 5-10 10-10 5 0 10 5 10 10 0 5-5 10-10 10z m14 222l4 0 0 4c0 2 1 4 2 5 1 1 1 1 2 1 1 1 3 1 4 1 0 0 1 0 1 0 1 0 1 0 1 0l0-4c-1 0-2 0-2 0-1 0-2 0-2-1-1 0-1 0-1-1 0 0 0-1 0-2l0-3 5 0 0-4-5 0 0-24-5 0 0 24-4 0z m24-5l0 0c1 1 2 3 4 4 1 1 3 1 5 1 0 0 0 0 1 0 0 0 0 0 0 0l0-5 0 0c0 0 0 0-1 1 0 0 0 0-1 0-1 0-2-1-3-1-1 0-2-1-2-2-1 0-2-1-2-2-1-1-1-3-1-4l0-15-5 0 0 28 5 0z m25-24c-2 0-4 1-6 1-1 1-3 2-4 3-1 2-2 3-3 5 0 2-1 4-1 6 0 2 1 4 1 6 1 1 2 3 3 4 1 2 3 3 4 3 2 1 4 1 6 1 2 0 4 0 5-1 2 0 3-1 4-3 1-1 2-3 3-5 0-2 1-4 1-6l-22 0c1-2 1-3 1-4 1-1 1-2 2-3 1-1 2-2 3-2 1-1 2-1 3-1 2 0 4 1 5 1 1 1 2 2 2 4l5 0c0-3-2-5-4-6-2-2-5-3-8-3z m0 26c-1 0-3 0-4-1 0 0-1-1-2-2-1 0-1-1-2-2 0-1 0-3 0-4l16 0c-1 3-1 5-3 6-1 2-3 3-5 3z m30-26c-2 0-4 1-6 1-1 1-3 2-4 3-1 2-2 3-3 5 0 2-1 4-1 6 0 2 1 4 1 6 1 1 2 3 3 4 1 2 3 3 4 3 2 1 4 1 6 1 2 0 4 0 5-1 2 0 3-1 4-3 1-1 2-3 3-5 0-2 1-4 1-6l-22 0c0-2 1-3 1-4 0-1 1-2 2-3 1-1 1-2 2-2 1-1 3-1 4-1 2 0 4 1 5 1 1 1 2 2 2 4l5 0c-1-3-2-5-4-6-2-2-5-3-8-3z m0 26c-2 0-3 0-4-1-1 0-1-1-2-2-1 0-1-1-2-2 0-1 0-3-1-4l17 0c-1 3-1 5-3 6-1 2-3 3-5 3z"/>
<glyph glyph-name="icon-sc-l-atm-service" unicode="&#57500;" d="M268 81l0 102-20 0c-2 0-4 1-4 4 0 2 2 3 4 3l157 0c2 0 4-1 4-3 0-3-2-4-4-4l-20 0 0-102 23 0c18 0 32 14 32 32l0 343c0 18-14 32-32 32l-296 0c-18 0-32-14-32-32l0-343c0-18 14-32 32-32z m0-8l-156 0c-22 0-40 18-40 40l0 343c0 22 18 40 40 40l296 0c22 0 40-18 40-40l0-343c0-22-18-40-40-40l-23 0 0-32c0-13-10-23-22-23l-76 0c-11 0-19 9-19 19z m45 110l0-157 50 0c8 0 15 7 15 15l0 142z m-4 0l-33 0 0-146c0-6 5-11 11-11l22 0z m-190 61c8 0 14-7 14-14 0-8-6-14-14-14-8 0-14 6-14 14 0 7 6 14 14 14z m0-5c-5 0-9-4-9-9 0-6 4-10 9-10 5 0 9 4 9 10 0 5-4 9-9 9z m47 5c8 0 14-7 14-14 0-8-6-14-14-14-8 0-14 6-14 14 0 7 6 14 14 14z m0-5c-5 0-9-4-9-9 0-6 4-10 9-10 5 0 9 4 9 10 0 5-4 9-9 9z m-47-34c8 0 14-7 14-15 0-7-6-14-14-14-8 0-14 7-14 14 0 8 6 15 14 15z m0-5c-5 0-9-4-9-10 0-5 4-9 9-9 5 0 9 4 9 9 0 6-4 10-9 10z m47 5c8 0 14-7 14-15 0-7-6-14-14-14-8 0-14 7-14 14 0 8 6 15 14 15z m0-5c-5 0-9-4-9-10 0-5 4-9 9-9 5 0 9 4 9 9 0 6-4 10-9 10z m-47-42c8 0 14-7 14-15 0-7-6-14-14-14-8 0-14 7-14 14 0 8 6 15 14 15z m0-5c-5 0-9-4-9-10 0-5 4-9 9-9 5 0 9 4 9 9 0 6-4 10-9 10z m47 5c8 0 14-7 14-15 0-7-6-14-14-14-8 0-14 7-14 14 0 8 6 15 14 15z m0-5c-5 0-9-4-9-10 0-5 4-9 9-9 5 0 9 4 9 9 0 6-4 10-9 10z m39 91c8 0 14-7 14-14 0-8-6-14-14-14-8 0-14 6-14 14 0 7 6 14 14 14z m0-5c-5 0-9-4-9-9 0-6 4-10 9-10 5 0 10 4 10 10 0 5-5 9-10 9z m0-34c8 0 14-7 14-15 0-7-6-14-14-14-8 0-14 7-14 14 0 8 6 15 14 15z m0-5c-5 0-9-4-9-10 0-5 4-9 9-9 5 0 10 4 10 9 0 6-5 10-10 10z m0-42c8 0 14-7 14-15 0-7-6-14-14-14-8 0-14 7-14 14 0 8 6 15 14 15z m0-5c-5 0-9-4-9-10 0-5 4-9 9-9 5 0 10 4 10 9 0 6-5 10-10 10z m-100 118l0 184 302 0 0-184z m4 4l294 0 0 176-294 0z"/>
<glyph glyph-name="icon-sc-l-audio-chat" unicode="&#57501;" d="M188 280l0-50c0-33 26-60 59-60l18 0c33 0 59 27 59 60l0 50z m0 5l136 0 0 139c0 33-26 60-59 60l-18 0c-33 0-59-27-59-60z m65-258c0 0 0 0 0 0l0 66-13 0c-84 0-152 68-152 151l0 38c0 4 3 6 6 6 3 0 6-2 6-6l0-38c0-77 63-140 140-140l32 0c77 0 140 63 140 140l0 38c0 4 3 6 6 6 3 0 6-2 6-6l0-38c0-83-68-151-152-151l-7 0 0-66c0 0 0 0 0 0l82 0c4 0 6-3 6-6 0-3-2-6-6-6l-182 0c-4 0-6 3-6 6 0 3 2 6 6 6z m12 131l-18 0c-39 0-71 32-71 72l0 194c0 40 32 72 71 72l18 0c39 0 71-32 71-72l0-194c0-40-32-72-71-72z"/>
<glyph glyph-name="icon-sc-l-automatic-renewal" unicode="&#57502;" d="M246 222c-8 1-14 4-19 9-3 3-4 6-5 9l4 1c0-1 0-1 1-2 1-2 2-4 3-6 4-4 10-7 19-7 14 0 21 6 21 17 0 7-5 11-15 15-2 1-3 1-8 2-15 5-22 11-22 20 0 10 8 17 21 18l0 14 4 0 0-14c9 0 15-4 18-9 2-4 3-7 3-9l-4 0c0 1 0 4-2 7-3 4-8 7-16 7-13 0-20-6-20-14 0-7 5-11 20-16 4-1 5-2 7-2 12-4 18-10 18-19 0-12-8-21-24-21l0-14-4 0z m-10-151c0 1 0 1 0 2 0 2 2 3 4 3 0 0 0 0 0 0l45 47c2 1 4 1 6 0 1-2 1-4 0-6l-40-41c50 0 97 21 131 57 35 35 54 79 54 125 0 82-55 154-132 178-2 1-4 3-3 5 1 2 3 3 5 3 81-25 138-101 138-186 0-48-20-94-56-131-36-37-85-59-137-59-3 0-5 0-7 0l0-1 47-48c1-2 1-4 0-6-2-1-4-1-6 0l-49 51z m28 381c2 0 4-2 4-4l0 0 0-8-49-51c-2-1-4-1-6 0-1 2-1 4 0 6l47 48 0 1c-1 0-3 0-4 0-100 0-180-83-180-186 0-82 52-152 129-174 2-1 3-3 2-5 0-2-2-3-5-3-79 23-134 97-134 182 0 106 82 192 185 194l-40 41c-1 2-1 4 0 6 2 1 4 1 6 0z m-122-82c1 1 3 1 4 0 1-1 1-3 0-4-31-30-48-67-48-109 0-42 17-76 48-103 1-1 1-3 0-4-1-1-3-1-4 0-32 29-48 64-48 107 0 44 17 82 48 113z m105-22c46 0 85-41 85-89 0-48-38-87-84-87-47 0-84 39-84 87 0 49 37 89 83 89z m0-8c-42 0-75-36-75-81 0-44 34-79 76-79 42 0 76 35 76 79 0 44-36 81-77 81z"/>
<glyph glyph-name="icon-sc-l-baby" unicode="&#57503;" d="M214 428c0 2 0 3 0 5 0 17 7 28 18 35 4 3 8 4 12 5 3 1 5 1 7 1 2 0 5 0 8 0 5-1 11-3 16-6 13-7 21-20 23-41 1 1 2 1 3 1 75-14 131-68 152-144 27-3 47-26 47-53 0-27-20-50-47-53-24-88-104-150-197-150-93 0-173 62-197 150-27 3-47 26-47 53 0 27 20 50 47 53 19 70 80 126 153 144 1 0 1 0 2 0z m1-7c0 0 0-1-1-1-71-17-130-73-148-140l-1-3-2 0c-24-2-43-22-43-46 0-24 19-44 43-46l2 0 1-3c22-85 100-146 190-146 90 0 168 61 190 146l1 3 2 0c24 2 43 22 43 46 0 24-19 44-43 46l-2 0-1 3c-19 73-73 126-146 140-1 0-1 0-2 1-1-25-13-43-33-53-7-4-15-7-22-9-3 0-5-1-8-1-1 0-2 0-3 0-1 0-2 1-2 2 0 1 1 2 2 2 0 0 1 1 3 1 2 0 4 0 7 1 7 2 14 4 21 8 19 10 31 27 31 52-2 20-10 33-22 40-8 4-15 6-21 6-1 0-3-1-5-1-4-1-8-3-12-5-10-6-16-16-16-31 0-12 5-19 13-23 3-1 6-2 9-3 2 0 3 0 4 0 0 0 1 0 2 0 3 1 5 2 7 3 5 3 8 8 8 15 0 1 1 2 3 2 1 0 2-1 2-2 0-9-4-16-11-19-2-2-5-3-7-3-2-1-3-1-4-1-1 0-3 0-5 0-3 1-7 2-10 4-6 3-11 8-14 15z m13-184c0-2 0-2 0-7 0-4 0-4-8-6l0 13c0 26-20 47-44 47-24 0-44-21-44-47l0-7c0-4 0-4-8-6l0 13c0 30 23 55 52 55 29 0 52-25 52-55z m160 0c0-2 0-2 0-7 0-4 0-4-8-6l0 13c0 26-20 47-44 47-24 0-44-21-44-47l0-7c0-4 0-4-8-6l0 13c0 30 23 55 52 55 29 0 52-25 52-55z m-128-98c8 0 15-7 15-15 0-8-7-15-15-15-8 0-15 7-15 15 0 8 7 15 15 15z m0-6c-5 0-9-4-9-9 0-5 4-9 9-9 5 0 9 4 9 9 0 5-4 9-9 9z"/>
<glyph glyph-name="icon-sc-l-book-agenda" unicode="&#57504;" d="M172 52l0-46-20 21-20-21 0 46-56 0 0 448 290 0c21 0 38-18 38-39l0-3c18-3 30-16 30-34l0-330c0-20-17-40-37-40l-18 0c-4-1-9-2-13-2z m-8 0l-24 0 0-26 12 13 12-13z m0 440l-80 0 0-432 80 0z m8 0l0-432 194 0c17 0 30 11 30 26l0 375c0 17-14 31-30 31z m216-434l9 0c18 0 33 18 33 36l0 330c0 16-11 27-26 30l0-368c0-12-6-22-16-28z m-278 406c0 1 1 2 2 2 1 0 2-1 2-2l0-368c0-1-1-2-2-2-1 0-2 1-2 2z"/>
<glyph glyph-name="icon-sc-l-book-cheque" unicode="&#57505;" d="M412 212l-56 0c-22 0-40 18-40 40 0 22 18 40 40 40l56 0c0 0 0 0 0 0l0 166c0 18-15 34-33 34l-295 0 0-472 295 0c19 0 33 12 33 29z m8 0l0-163c0-22-18-37-41-37l-303 0 0 488 303 0c22 0 41-19 41-42l0-166c0 0 0 0 0 0l16 0 0-80z m-64 72c-18 0-32-14-32-32 0-18 14-32 32-32l72 0 0 64z m8-17c8 0 15-7 15-15 0-8-7-15-15-15-8 0-15 7-15 15 0 8 7 15 15 15z m0-6c-5 0-9-4-9-9 0-5 4-9 9-9 5 0 9 4 9 9 0 5-4 9-9 9z m-254 195c0 1 1 2 2 2 1 0 2-1 2-2l0-408c0-1-1-2-2-2-1 0-2 1-2 2z"/>
<glyph glyph-name="icon-sc-l-book-contact-numbers" unicode="&#57506;" d="M148 51l0-45-21 22-21-22-1 45-29 0 0 449 297 0c21 0 36-18 36-40l0-1c20-2 33-16 33-35l0-330c0-22-15-41-35-41l-21 0c-4-2-8-2-13-2z m-8 0l-27 0 0-26 14 14 13-13z m0 441l-56 0 0-433 56 0z m8 0l0-433 225 0c17 0 28 10 28 27l0 374c0 18-12 32-28 32z m247-435l12 0c18 0 31 17 31 37l0 330c0 17-12 29-29 31l0-369c0-13-5-23-14-29z m-287 405c0 1 0 2 2 2 1 0 2-1 2-2l0-373c0-1-1-2-2-2-2 0-2 1-2 2z m132-140c0 0 0 1 1 2 0 2 0 4 1 6 1 5 3 11 6 17 8 16 21 25 40 25l10 0c6 0 11-4 11-10l0-37c0-6-5-11-11-11l-12 0c-3 0-6-2-6-6l0-61c0-3 3-6 6-6l12 0c6 0 11-4 11-10l0-37c0-6-5-11-11-11l-10 0c-27 0-42 20-47 45 0 2-1 4-1 6 0 0 0 28 0 85z m5-1c0 0 0 0 0 0 0-1 0-29 0-87 0-1 0-3 1-5 5-23 18-41 42-41l10 0c4 0 6 3 6 6l0 37c0 3-2 6-6 6l-12 0c-6 0-11 4-11 10l0 61c0 6 5 11 11 11l12 0c4 0 6 3 6 6l0 37c0 3-2 6-6 6l-10 0c-17 0-28-9-36-23-2-5-4-11-6-16 0-3 0-4-1-6z"/>
<glyph glyph-name="icon-sc-l-book-free-chequebook" unicode="&#57507;" d="M420 212l-56 0c-22 0-40 18-40 40 0 22 18 40 40 40l56 0c0 0 0 0 0 0l0 166c0 18-16 34-34 34l-302 0 0-472 302 0c20 0 34 12 34 29z m8 0l0-163c0-22-18-37-42-37l-310 0 0 488 310 0c23 0 42-19 42-42l0-166c0 0 0 0 0 0l16 0 0-80z m-64 72c-18 0-32-14-32-32 0-18 14-32 32-32l72 0 0 64z m8-17c8 0 15-7 15-15 0-8-7-15-15-15-8 0-15 7-15 15 0 8 7 15 15 15z m0-6c-5 0-9-4-9-9 0-5 4-9 9-9 5 0 9 4 9 9 0 5-4 9-9 9z m-262 203c0 1 1 2 2 2 1 0 2-1 2-2l0-408c0-1-1-2-2-2-1 0-2 1-2 2z m124-28l4 0 0 4c0 2 1 4 2 5 1 1 1 1 2 1 1 1 3 1 4 1 0 0 1 0 1 0 1 0 1 0 1 0l0-4c-1 0-2 0-2 0-1 0-2 0-2-1-1 0-1 0-1-1 0 0 0-1 0-2l0-3 5 0 0-4-5 0 0-24-5 0 0 24-4 0z m24-5l0 0c1 1 2 3 4 4 1 1 3 1 5 1 0 0 0 0 1 0 0 0 0 0 0 0l0-5 0 0c0 0 0 0-1 1 0 0 0 0-1 0-1 0-2-1-3-1-1 0-2-1-2-2-1 0-2-1-2-2-1-1-1-3-1-4l0-15-5 0 0 28 5 0z m25-24c-2 0-4 1-6 1-1 1-3 2-4 3-1 2-2 3-3 5 0 2-1 4-1 6 0 2 1 4 1 6 1 1 2 3 3 4 1 2 3 3 4 3 2 1 4 1 6 1 2 0 4 0 5-1 2 0 3-1 4-3 1-1 2-3 3-5 0-2 1-4 1-6l-22 0c1-2 1-3 1-4 1-1 1-2 2-3 1-1 2-2 3-2 1-1 2-1 3-1 2 0 4 1 5 1 1 1 2 2 2 4l5 0c0-3-2-5-4-6-2-2-5-3-8-3z m0 26c-1 0-3 0-4-1 0 0-1-1-2-2-1 0-1-1-2-2 0-1 0-3 0-4l16 0c-1 3-1 5-3 6-1 2-3 3-5 3z m30-26c-2 0-4 1-6 1-1 1-3 2-4 3-1 2-2 3-3 5 0 2-1 4-1 6 0 2 1 4 1 6 1 1 2 3 3 4 1 2 3 3 4 3 2 1 4 1 6 1 2 0 4 0 5-1 2 0 3-1 4-3 1-1 2-3 3-5 0-2 1-4 1-6l-22 0c0-2 1-3 1-4 0-1 1-2 2-3 1-1 1-2 2-2 1-1 3-1 4-1 2 0 4 1 5 1 1 1 2 2 2 4l5 0c-1-3-2-5-4-6-2-2-5-3-8-3z m0 26c-2 0-3 0-4-1-1 0-1-1-2-2-1 0-1-1-2-2 0-1 0-3-1-4l17 0c-1 3-1 5-3 6-1 2-3 3-5 3z"/>
<glyph glyph-name="icon-sc-l-book-fund-library" unicode="&#57508;" d="M204 114l0 268-88 0 0-201c0-2-2-4-4-4-2 0-4 2-4 4l0 249c0 7-8 14-17 14l-56 0c-9 0-15-6-15-14l0-20 46 0 0-28-46 0 0-268 46 0 0-28-46 0 0-20c0-8 6-14 15-14l56 0c8 0 14 6 14 14 0 2 1 3 3 4l0 70c0 2 2 4 4 4 2 0 4-2 4-4l0-26z m0-28l-88 0 0-20c0-8 7-14 15-14l58 0c8 0 15 6 15 14z m0 324l0 19c0 0 0 0 0 0l0 1c0 8-7 14-15 14l-58 0c-8 0-15-6-15-14l0-20z m4 32c4 4 9 8 15 9l55 9c12 2 24-6 26-18l4-24 1 0 1-1c2 5 7 10 14 12l52 14c11 3 23-3 27-15l5-18 2 0 8-27-2-1 73-252 1 0 8-27-1 0 2-9c3-12-3-24-15-27l-52-14c-11-3-23 3-27 15l-92 321 0 0 43-259 1 0 5-29-1 0 3-14c2-12-7-24-19-26l-55-9c-12-2-24 6-26 18l-52 310 0-314c0-12-10-22-23-22l-58 0c-9 0-16 5-20 12-4-7-12-12-20-12l-56 0c-13 0-23 10-23 22l0 364c0 12 10 22 23 22l56 0c8 0 16-4 21-10 4 6 11 10 19 10l58 0c8 0 15-4 19-10z m273-314l-73 252-78-21 72-253z m8-28l-79-21 3-9c2-7 10-12 17-9l52 14c7 2 12 9 9 16z m-89 308l-5 18c-2 7-10 12-17 9l-52-14c-7-2-12-9-9-16l5-19z m-52-279l-43 259-84-14 44-259z m5-29l-83-14 2-14c1-8 9-13 17-12l55 9c8 1 13 9 12 16z m-53 317l-4 23c-1 8-9 13-17 12l-55-9c-8-1-13-9-12-16l4-24z m-238-31l0 20-44 0 0-20z m-44-296l44 0 0 20-44 0z m288 324l-88-15 4-21 88 15z m48-288l-88-15 4-21 88 15z m54 280l-86-24 6-20 86 24z m80-280l-86-24 6-20 86 24z m-282 260l0 20-92 0 0-20z m0-296l0 20-92 0 0-20z"/>
<glyph glyph-name="icon-sc-l-book-products" unicode="&#57509;" d="M337 22c-4-1-9-2-14-2l-311 0 0 472 311 0c20 0 37-15 40-34 18-2 31-16 31-36l0-86c0-1-1-2-2-2-1 0-2 1-2 2l0 86c0 17-11 30-26 32 0-1 0-2 0-3l0-124c0-3-2-4-4-4-2 0-4 1-4 4l0 124c0 18-15 33-33 33l-303 0 0-456 303 0c19 0 33 11 33 28 0 2 2 4 4 4 2 0 4-2 4-4 0-13-7-24-17-30l5 0c21 0 38 18 38 38 0 1 1 2 2 2 1 0 2-1 2-2 0-22-19-42-42-42z m-299 434c0 1 1 2 2 2 1 0 2-1 2-2l0-392c0-1-1-2-2-2-1 0-2 1-2 2z m62-57c-2 0-3 1-4 1-1 0-2 1-3 1-1 1-2 2-2 3-1 1-1 2-1 3 0 2 0 3 1 4 1 1 1 2 2 3 2 0 3 1 4 1 2 1 3 1 5 1 1 0 2 0 3 1 1 0 1 0 2 0 1 1 1 1 1 1 1 1 1 1 1 2 0 2-1 3-2 4-1 1-2 1-4 1-2 0-4-1-5-1-1-1-2-3-2-4l-4 0c0 1 0 2 0 3 1 1 2 2 2 3 1 1 3 1 4 2 1 0 3 0 5 0 1 0 2 0 4 0 1 0 2-1 3-1 1-1 2-2 2-3 1-1 1-3 1-5l0-13c0-1 1-2 1-2 0-1 1-1 2 0l0 0 0-4c0 0 0 0-1 0 0 0-1 0-1 0-2 0-3 0-3 1-1 1-2 2-2 3l0 0c-1-1-1-1-2-2 0 0-1-1-2-1 0-1-1-1-2-1-1 0-2-1-3-1z m1 4c1 0 2 0 3 1 1 0 2 1 3 1 1 1 1 2 1 3 1 1 1 1 1 2l0 5c-1-1-2-1-3-1-1-1-2-1-3-1-1 0-2-1-3-1-1 0-2 0-3-1 0 0-1-1-1-1-1-1-1-2-1-3 0 0 0-1 1-2 0 0 0-1 1-1 0-1 1-1 2-1 0 0 1 0 2 0z m31-4c-2 0-3 1-5 1-2 1-3 2-4 3-2 2-2 3-3 5-1 2-1 4-1 6 0 2 0 4 1 6 1 1 1 3 3 4 1 2 2 3 4 3 2 1 3 1 5 1 4 0 7 0 9-2 2-2 3-4 3-7l-4 0c-1 2-1 3-3 4-1 1-2 2-5 2-1 0-2-1-3-1-1-1-2-2-3-3-1 0-1-2-2-3 0-1 0-3 0-4 0-2 0-3 0-4 1-2 1-3 2-4 1-1 2-1 3-2 1-1 2-1 3-1 3 0 4 1 6 2 1 1 2 3 2 5l5 0c-1-4-2-6-4-8-2-2-5-3-9-3z m29 0c-2 0-3 1-5 1-2 1-3 2-4 3-2 2-2 3-3 5-1 2-1 4-1 6 0 2 0 4 1 6 1 1 1 3 3 4 1 2 2 3 4 3 2 1 3 1 5 1 4 0 7 0 9-2 2-2 3-4 3-7l-4 0c-1 2-1 3-3 4-1 1-2 2-5 2-1 0-2-1-3-1-1-1-2-2-3-3-1 0-1-2-2-3 0-1 0-3 0-4 0-2 0-3 0-4 1-2 1-3 2-4 1-1 2-1 3-2 1-1 2-1 3-1 3 0 4 1 6 2 1 1 2 3 2 5l5 0c-1-4-2-6-4-8-2-2-5-3-9-3z m30 0c-3 0-4 1-6 1-2 1-3 2-4 3-2 2-2 3-3 5-1 2-1 4-1 6 0 2 0 4 1 6 1 1 1 3 3 4 1 2 2 3 4 3 2 1 3 1 6 1 2 0 4 0 5-1 2 0 3-1 4-3 2-1 2-3 3-4 1-2 1-4 1-6 0-2 0-4-1-6-1-2-1-3-3-5-1-1-2-2-4-3-1 0-3-1-5-1z m-1 4c2 0 3 0 4 1 1 1 2 1 3 2 1 1 1 2 2 4 0 1 0 2 0 4 0 1 0 3 0 4-1 1-1 3-2 4-1 0-2 1-3 2-1 0-2 1-4 1-1 0-2-1-3-1-1-1-2-2-3-2-1-1-1-3-2-4 0-1 0-3 0-4 0-2 0-3 0-4 1-2 1-3 2-4 1-1 2-1 3-2 1-1 2-1 3-1z m37-3l0 4 0 0c-1-1-2-3-4-3-1-1-3-2-5-2-2 0-5 1-6 3-2 1-3 4-3 7l0 19 5 0 0-19c0-2 0-3 1-4 1-1 3-2 5-2 1 0 2 1 3 1 1 0 1 1 2 1 1 1 1 2 1 3 1 1 1 2 1 3l0 17 5 0 0-28z m16 24l0 0c1 1 3 2 4 3 1 1 3 1 5 1 3 0 5 0 7-2 2-1 2-4 2-7l0-19-4 0 0 19c0 2-1 3-2 4-1 1-2 1-4 1-1 0-2 0-3 0-1 0-2-1-3-2 0 0-1-1-1-2-1-1-1-2-1-3l0-17-5 0 0 28 5 0z m22 4l5 0 0 9 4 0 0-9 6 0 0-4-6 0 0-17c0-1 1-2 1-3 1 0 1 0 2 0 1 0 1 0 1 0 1 0 1 0 2 0l0 0 0-4c-2 0-3 0-4 0-2 0-4 0-5 1-1 1-1 2-1 4l0 19-5 0z m235-157l0-158c0-16-13-29-29-29l-278 0c-16 0-29 13-29 29l0 158c0 16 13 29 29 29l278 0c16 0 29-13 29-29z m-8 0c0 12-9 21-21 21l-278 0c-12 0-21-9-21-21l0-158c0-12 9-21 21-21l278 0c12 0 21 9 21 21z m-88-69c12 0 22-10 22-22 0-12-10-22-22-22-12 0-22 10-22 22 0 12 10 22 22 22z m0-4c-10 0-18-8-18-18 0-10 8-18 18-18 10 0 18 8 18 18 0 10-8 18-18 18z m24 4c12 0 22-10 22-22 0-12-10-22-22-22-12 0-22 10-22 22 0 12 10 22 22 22z m0-4c-10 0-18-8-18-18 0-10 8-18 18-18 10 0 18 8 18 18 0 10-8 18-18 18z m-260 40c-1 0-2 1-2 2 0 1 1 2 2 2l320 0c1 0 2-1 2-2 0-1-1-2-2-2z m26-134c0-1-1-2-2-2-1 0-2 1-2 2l0 120c0 1 1 2 2 2 1 0 2-1 2-2z"/>
<glyph glyph-name="icon-sc-l-book-products-brandless" unicode="&#57510;" d="M172 238l0-125c0-12 9-21 21-21l278 0c12 0 21 9 21 21l0 158c0 12-9 21-21 21l-278 0c-12 0-21-9-21-21l0-29 316 0c1 0 2-1 2-2 0-1-1-2-2-2z m165-216c-4-1-9-2-14-2l-311 0 0 472 311 0c20 0 37-15 40-34 18-2 31-16 31-36l0-86c0-1-1-2-2-2-1 0-2 1-2 2l0 86c0 17-11 30-26 32 0-1 0-2 0-3l0-124c0-3-2-4-4-4-2 0-4 1-4 4l0 124c0 18-15 33-33 33l-303 0 0-456 303 0c19 0 33 11 33 28 0 2 2 4 4 4 2 0 4-2 4-4 0-13-7-24-17-30l5 0c21 0 38 18 38 38 0 1 1 2 2 2 1 0 2-1 2-2 0-22-19-42-42-42z m-299 434c0 1 1 2 2 2 1 0 2-1 2-2l0-392c0-1-1-2-2-2-1 0-2 1-2 2z m62-57c-2 0-3 1-4 1-1 0-2 1-3 1-1 1-2 2-2 3-1 1-1 2-1 3 0 2 0 3 1 4 1 1 1 2 2 3 2 0 3 1 4 1 2 1 3 1 5 1 1 0 2 0 3 1 1 0 1 0 2 0 1 1 1 1 1 1 1 1 1 1 1 2 0 2-1 3-2 4-1 1-2 1-4 1-2 0-4-1-5-1-1-1-2-3-2-4l-4 0c0 1 0 2 0 3 1 1 2 2 2 3 1 1 3 1 4 2 1 0 3 0 5 0 1 0 2 0 4 0 1 0 2-1 3-1 1-1 2-2 2-3 1-1 1-3 1-5l0-13c0-1 1-2 1-2 0-1 1-1 2 0l0 0 0-4c0 0 0 0-1 0 0 0-1 0-1 0-2 0-3 0-3 1-1 1-2 2-2 3l0 0c-1-1-1-1-2-2 0 0-1-1-2-1 0-1-1-1-2-1-1 0-2-1-3-1z m1 4c1 0 2 0 3 1 1 0 2 1 3 1 1 1 1 2 1 3 1 1 1 1 1 2l0 5c-1-1-2-1-3-1-1-1-2-1-3-1-1 0-2-1-3-1-1 0-2 0-3-1 0 0-1-1-1-1-1-1-1-2-1-3 0 0 0-1 1-2 0 0 0-1 1-1 0-1 1-1 2-1 0 0 1 0 2 0z m31-4c-2 0-3 1-5 1-2 1-3 2-4 3-2 2-2 3-3 5-1 2-1 4-1 6 0 2 0 4 1 6 1 1 1 3 3 4 1 2 2 3 4 3 2 1 3 1 5 1 4 0 7 0 9-2 2-2 3-4 3-7l-4 0c-1 2-1 3-3 4-1 1-2 2-5 2-1 0-2-1-3-1-1-1-2-2-3-3-1 0-1-2-2-3 0-1 0-3 0-4 0-2 0-3 0-4 1-2 1-3 2-4 1-1 2-1 3-2 1-1 2-1 3-1 3 0 4 1 6 2 1 1 2 3 2 5l5 0c-1-4-2-6-4-8-2-2-5-3-9-3z m29 0c-2 0-3 1-5 1-2 1-3 2-4 3-2 2-2 3-3 5-1 2-1 4-1 6 0 2 0 4 1 6 1 1 1 3 3 4 1 2 2 3 4 3 2 1 3 1 5 1 4 0 7 0 9-2 2-2 3-4 3-7l-4 0c-1 2-1 3-3 4-1 1-2 2-5 2-1 0-2-1-3-1-1-1-2-2-3-3-1 0-1-2-2-3 0-1 0-3 0-4 0-2 0-3 0-4 1-2 1-3 2-4 1-1 2-1 3-2 1-1 2-1 3-1 3 0 4 1 6 2 1 1 2 3 2 5l5 0c-1-4-2-6-4-8-2-2-5-3-9-3z m30 0c-3 0-4 1-6 1-2 1-3 2-4 3-2 2-2 3-3 5-1 2-1 4-1 6 0 2 0 4 1 6 1 1 1 3 3 4 1 2 2 3 4 3 2 1 3 1 6 1 2 0 4 0 5-1 2 0 3-1 4-3 2-1 2-3 3-4 1-2 1-4 1-6 0-2 0-4-1-6-1-2-1-3-3-5-1-1-2-2-4-3-1 0-3-1-5-1z m-1 4c2 0 3 0 4 1 1 1 2 1 3 2 1 1 1 2 2 4 0 1 0 2 0 4 0 1 0 3 0 4-1 1-1 3-2 4-1 0-2 1-3 2-1 0-2 1-4 1-1 0-2-1-3-1-1-1-2-2-3-2-1-1-1-3-2-4 0-1 0-3 0-4 0-2 0-3 0-4 1-2 1-3 2-4 1-1 2-1 3-2 1-1 2-1 3-1z m37-3l0 4 0 0c-1-1-2-3-4-3-1-1-3-2-5-2-2 0-5 1-6 3-2 1-3 4-3 7l0 19 5 0 0-19c0-2 0-3 1-4 1-1 3-2 5-2 1 0 2 1 3 1 1 0 1 1 2 1 1 1 1 2 1 3 1 1 1 2 1 3l0 17 5 0 0-28z m16 24l0 0c1 1 3 2 4 3 1 1 3 1 5 1 3 0 5 0 7-2 2-1 2-4 2-7l0-19-4 0 0 19c0 2-1 3-2 4-1 1-2 1-4 1-1 0-2 0-3 0-1 0-2-1-3-2 0 0-1-1-1-2-1-1-1-2-1-3l0-17-5 0 0 28 5 0z m22 4l5 0 0 9 4 0 0-9 6 0 0-4-6 0 0-17c0-1 1-2 1-3 1 0 1 0 2 0 1 0 1 0 1 0 1 0 1 0 2 0l0 0 0-4c-2 0-3 0-4 0-2 0-4 0-5 1-1 1-1 2-1 4l0 19-5 0z m235-157l0-158c0-16-13-29-29-29l-278 0c-16 0-29 13-29 29l0 158c0 16 13 29 29 29l278 0c16 0 29-13 29-29z m-306-167c0-1-1-2-2-2-1 0-2 1-2 2l0 120c0 1 1 2 2 2 1 0 2-1 2-2z"/>
<glyph glyph-name="icon-sc-l-book-transactional-info" unicode="&#57511;" d="M412 204l-56 0c-22 0-40 18-40 40 0 22 18 40 40 40l56 0c0 0 0 0 0 0l0 174c0 18-15 34-32 34l-288 0 0-472 288 0c18 0 32 12 32 29z m8 0l0-155c0-22-17-37-40-37l-296 0 0 488 296 0c22 0 40-19 40-42l0-174c0 0 0 0 0 0l16 0 0-80z m-64 72c-18 0-32-14-32-32 0-18 14-32 32-32l72 0 0 64z m8-17c8 0 15-7 15-15 0-8-7-15-15-15-8 0-15 7-15 15 0 8 7 15 15 15z m0-6c-5 0-9-4-9-9 0-5 4-9 9-9 5 0 9 4 9 9 0 5-4 9-9 9z m-246 203c0 1 1 2 2 2 1 0 2-1 2-2l0-408c0-1-1-2-2-2-1 0-2 1-2 2z m149-9l5 0 0-6-5 0z m0-11l5 0 0-28-5 0z m17-4l0 0c1 1 3 2 4 3 1 1 3 1 5 1 3 0 5 0 7-2 2-1 3-4 3-7l0-19-5 0 0 19c0 2-1 3-2 4-1 1-2 1-4 1-1 0-2 0-3 0-1 0-2-1-3-2 0 0-1-1-1-2-1-1-1-2-1-3l0-17-5 0 0 28 5 0z m24 4l4 0 0 4c0 2 0 4 2 5 0 1 1 1 2 1 1 1 3 1 4 1 0 0 1 0 1 0 1 0 1 0 1 0l0-4c-1 0-2 0-2 0-1 0-2 0-2-1-1 0-1 0-1-1 0 0 0-1 0-2l0-3 5 0 0-4-5 0 0-24-5 0 0 24-4 0z m31-29c-2 0-4 1-6 1-2 1-3 2-4 3-1 2-2 3-3 5-1 2-1 4-1 6 0 2 0 4 1 6 1 1 2 3 3 4 1 2 2 3 4 3 2 1 4 1 6 1 2 0 4 0 5-1 2 0 3-1 5-3 1-1 2-3 2-4 1-2 1-4 1-6 0-2 0-4-1-6 0-2-1-3-2-5-2-1-3-2-5-3-1 0-3-1-5-1z m0 4c1 0 2 0 3 1 1 1 2 1 3 2 1 1 1 2 2 4 0 1 0 2 0 4 0 1 0 3 0 4-1 1-1 3-2 4-1 0-2 1-3 2-1 0-2 1-3 1-2 0-3-1-4-1-1-1-2-2-3-2-1-1-1-3-2-4 0-1 0-3 0-4 0-2 0-3 0-4 1-2 1-3 2-4 1-1 2-1 3-2 1-1 2-1 4-1z"/>
<glyph glyph-name="icon-sc-l-book-usd-chequebook" unicode="&#57512;" d="M412 212l-56 0c-22 0-40 18-40 40 0 22 18 40 40 40l56 0 0 166c0 18-15 34-33 34l-295 0 0-472 295 0c19 0 33 12 33 29z m8 0l0-163c0-22-18-37-41-37l-303 0 0 488 303 0c22 0 41-19 41-42l0-166 16 0 0-80z m-64 72c-18 0-32-14-32-32 0-18 14-32 32-32l72 0 0 64z m8-25c8 0 15-7 15-15 0-8-7-15-15-15-8 0-15 7-15 15 0 8 7 15 15 15z m0-6c-5 0-9-4-9-9 0-5 4-9 9-9 5 0 9 4 9 9 0 5-4 9-9 9z m-254 203c0 1 1 2 2 2 1 0 2-1 2-2l0-408c0-1-1-2-2-2-1 0-2 1-2 2z m167-48l0 4 0 0c-1-1-2-3-3-3-2-1-3-2-5-2-3 0-6 1-7 3-2 1-3 4-3 7l0 19 5 0 0-19c0-2 1-3 2-4 1-1 2-2 4-2 1 0 2 1 3 1 1 0 2 1 2 1 1 1 1 2 2 3 0 1 0 2 0 3l0 17 5 0 0-28z m22-1c-4 0-7 1-9 3-2 1-3 4-3 6l5 0c0-1 0-1 1-2 0-1 1-1 1-2 1 0 2 0 2-1 1 0 2 0 3 0 3 0 4 0 5 1 1 1 2 2 2 3 0 2-1 3-2 4-1 0-3 1-6 1-1 1-2 1-4 1-1 1-2 1-3 2-1 0-2 1-2 2-1 1-1 2-1 4 0 2 1 4 3 5 1 2 4 2 7 2 4 0 6 0 8-2 2-1 3-3 3-6l-5 0c0 2 0 3-1 4-1 0-3 1-5 1-2 0-3-1-4-1-1-1-1-2-1-3 0-1 0-1 0-2 0 0 1-1 2-1 0 0 1-1 2-1 1 0 2 0 3 0 1-1 3-1 4-1 1-1 2-1 3-2 1 0 2-1 3-2 0-1 0-3 0-4 0-2 0-3 0-4-1-1-2-2-3-3-1 0-2-1-3-1-2-1-3-1-5-1z m28 0c-2 0-3 1-5 1-1 1-3 2-4 3-1 1-1 3-2 5-1 2-1 4-1 6 0 2 0 4 1 6 1 2 1 3 3 5 1 1 2 2 3 2 2 1 4 1 5 1 2 0 4 0 5-1 2-1 3-2 4-3l0 0c0 0 0 1 0 2 0 1 0 2 0 3l0 10 5 0 0-39-5 0 0 4 0 0c-1-2-2-3-4-4-1 0-3-1-5-1z m1 4c1 0 2 0 4 1 1 0 2 1 2 2 1 1 1 2 2 4 0 1 0 2 0 4 0 1 0 3 0 4-1 1-1 3-2 3-1 1-2 2-3 3-1 0-2 0-3 0-2 0-3 0-4 0-1-1-1-2-2-3-1-1-1-2-2-3 0-1 0-3 0-4 0-2 0-3 0-4 1-2 1-3 2-4 1-1 1-2 2-2 1-1 2-1 4-1z"/>
<glyph glyph-name="icon-sc-l-bookmark" unicode="&#57513;" d="M444 460l-168 0c-2 0-4 2-4 4 0 2 2 4 4 4l172 0c2 0 4-2 4-4l0-448c0-2-2-4-4-4l-376 0c-2 0-4 2-4 4l0 448c0 2 2 4 4 4l62 0c3 0 4-2 4-4 0-2-1-4-4-4l-58 0 0-440 368 0z m-281-110c-2-3-7-2-7 2l0 144c0 2 2 4 4 4l88 0c2 0 4-2 4-4l0-144c0-4-5-5-7-3l-42 50z m81 142l-80 0 0-129 35 45c2 2 5 2 7 0l38-45z m-124-182c-1 0-2 1-2 2 0 1 1 2 2 2l288 0c1 0 2-1 2-2 0-1-1-2-2-2z m0-80c-1 0-2 1-2 2 0 1 1 2 2 2l288 0c1 0 2-1 2-2 0-1-1-2-2-2z m0-56c-1 0-2 1-2 2 0 1 1 2 2 2l288 0c1 0 2-1 2-2 0-1-1-2-2-2z m0-64c-1 0-2 1-2 2 0 1 1 2 2 2l144 0c1 0 2-1 2-2 0-1-1-2-2-2z"/>
<glyph glyph-name="icon-sc-l-building-add-bank-account" unicode="&#57514;" d="M408 112l0 39c0 2 1 3 2 3 1 0 2-1 2-3l0-39 39 0c1 0 2-1 2-2 0-1-1-2-2-2l-39 0 0-39c0-1-1-2-2-2-1 0-2 1-2 2l0 39-39 0c-1 0-2 1-2 2 0 1 1 2 2 2z m-310 258c-1 0-2 1-2 2 0 2 1 3 2 3l248 0c1 0 2-1 2-3 0-1-1-2-2-2z m-41-30c-2 0-4 2-4 5 0 2 2 4 4 4l334 0c3 0 5-2 5-4 0-3-2-5-5-5z m-4-32c0 3 2 5 4 5 3 0 5-2 5-5l0-146c0-3-2-5-5-5-2 0-4 2-4 5z m82 0c0 3 2 5 5 5 2 0 4-2 4-5l0-146c0-3-2-5-4-5-3 0-5 2-5 5z m82 0c0 3 3 5 5 5 3 0 5-2 5-5l0-146c0-3-2-5-5-5-2 0-5 2-5 5z m87 0c0 3 3 5 5 5 3 0 5-2 5-5l0-146c0-3-2-5-5-5-2 0-5 2-5 5z m83 0c0 3 2 5 4 5 3 0 5-2 5-5l0-92c0-2-2-5-5-5-2 0-4 3-4 5z m-339-176c-1 0-2 1-2 2 0 1 1 2 2 2l248 0c2 0 3-1 3-2 0-1-1-2-3-2z m-27-39c-3 0-5 2-5 5 0 2 2 4 5 4l280 0c3 0 5-2 5-4 0-3-2-5-5-5z m20 276c-2-2-4-1-6 1-1 2-1 5 1 6l155 105c1 1 2 2 3 3 3 1 5 3 8 4 3 2 6 4 9 5 5 2 8 3 12 3 3 0 7-1 12-3 3-1 6-3 9-4 3-2 5-4 8-5 1-1 2-2 3-2l153-106c2-1 2-4 1-6-2-2-4-3-6-1l-153 105c-1 1-2 1-3 2-3 2-5 3-7 5-3 1-6 3-9 4-3 1-6 2-8 2-2 0-5-1-8-2-3-1-6-3-9-4-2-2-4-3-7-5-1-1-2-1-3-2z m367-172c48 0 88-40 88-88 0-48-39-86-86-86-48 0-86 38-86 86 0 48 37 88 84 88z m0-9c-41 0-75-36-75-79 0-43 34-77 77-77 42 0 77 34 77 77 0 43-36 79-79 79z m-164 242c0-11-9-20-20-20-10 0-19 9-19 20 0 10 9 19 19 19 11 0 20-9 20-19z m-7 0c0 7-6 12-13 12-7 0-12-5-12-12 0-7 5-13 12-13 7 0 13 6 13 13z"/>
<glyph glyph-name="icon-sc-l-building-bank" unicode="&#57515;" d="M104 342c-1 0-2 1-2 2 0 1 1 2 2 2l288 0c1 0 2-1 2-2 0-1-1-2-2-2z m-48-34c-2 0-4 2-4 4 0 2 2 4 4 4l392 0c2 0 4-2 4-4 0-2-2-4-4-4z m-4-36c0 2 2 4 4 4 2 0 4-2 4-4l0-176c0-2-2-4-4-4-2 0-4 2-4 4z m104 0c0 2 2 4 4 4 2 0 4-2 4-4l0-176c0-2-2-4-4-4-2 0-4 2-4 4z m96 0c0 2 2 4 4 4 2 0 4-2 4-4l0-176c0-2-2-4-4-4-2 0-4 2-4 4z m96 0c0 2 2 4 4 4 2 0 4-2 4-4l0-176c0-2-2-4-4-4-2 0-4 2-4 4z m104 0c0 2 2 4 4 4 2 0 4-2 4-4l0-176c0-2-2-4-4-4-2 0-4 2-4 4z m-404-210c-1 0-2 1-2 2 0 1 1 2 2 2l408 0c1 0 2-1 2-2 0-1-1-2-2-2z m-32-42c-2 0-4 2-4 4 0 2 2 4 4 4l480 0c2 0 4-2 4-4 0-2-2-4-4-4z m26 321c-2-2-4-1-5 1-2 2-1 4 1 5l182 127c1 1 2 2 4 3 3 2 6 4 9 6 4 2 7 4 11 6 5 2 9 3 13 3 4 0 8-1 14-3 3-2 7-4 10-6 3-2 7-4 9-5 2-2 3-3 4-3l180-128c2-1 3-4 1-5-1-2-4-3-5-1l-181 128c0 0-2 1-3 2-3 2-6 4-9 5-3 2-6 4-10 5-4 2-7 3-10 3-3 0-6-1-10-3-3-1-7-3-10-5-3-2-6-3-8-5-2-1-3-2-4-3z m241 71c0-13-10-23-23-23-13 0-23 10-23 23 0 13 10 23 23 23 13 0 23-10 23-23z m-6 0c0 9-8 17-17 17-9 0-17-8-17-17 0-9 8-17 17-17 9 0 17 8 17 17z"/>
<glyph glyph-name="icon-sc-l-building-city" unicode="&#57516;" d="M306 289l-28 0 0-78-17 0 0 4 13 0 0 78 32 0 0 114 140 0 0-338c0-2-2-4-4-4-3 0-4 2-4 4l0 330-124 0 0-240 1 0 0-4-1 0 0-86c0-2-1-4-4-4-2 0-4 2-4 4l0 86-104 0 0 4 28 0c0 1-1 2-1 3l0 97-36 32-37-32 0-190c0-2-2-4-4-4-2 0-4 2-4 4l0 112-74 0 0-112c0-2-1-4-4-4-2 0-4 2-4 4l0 120 82 0 0 74 45 38 44-38 0-101c0-1 0-2-1-3l70 0z m-40-209c-7 1-13 7-13 15 0 8 6 14 14 14 8 0 15-6 15-14 0-7-4-12-9-14 0-1 1-2 1-3l0-9c0-2-2-4-4-4-3 0-4 2-4 4l0 9c0 1 0 1 0 2z m-76 173c8 0 15-7 15-15 0-8-7-14-15-14-8 0-14 6-14 14 0 8 6 15 14 15z m0-6c-4 0-8-4-8-9 0-5 4-8 8-8 5 0 9 3 9 8 0 5-4 9-9 9z m77-144c-4 0-8-4-8-8 0-5 4-9 8-9 5 0 9 4 9 9 0 4-4 8-9 8z m-251-70c-2 0-4 1-4 4 0 2 2 4 4 4l480 0c2 0 4-2 4-4 0-3-2-4-4-4z m80 119c0 2 0 2 2 2 1 0 2 0 2-2l0-83c0-1-1-2-2-2-2 0-2 1-2 2z m244 209c0 1 1 2 2 2 1 0 2-1 2-2l0-292c0-1-1-2-2-2-1 0-2 1-2 2z m32 0c0 1 1 2 2 2 1 0 2-1 2-2l0-292c0-1-1-2-2-2-1 0-2 1-2 2z m31 0c0 1 1 2 2 2 2 0 2-1 2-2l0-292c0-1 0-2-2-2-1 0-2 1-2 2z m-305-146l23 0 0 260 74-36 0-113-4 0 0 111-66 32 0-258-27 0z"/>
<glyph glyph-name="icon-sc-l-building-downtown" unicode="&#57517;" d="M260 93l0-37c0-2-2-4-4-4-2 0-4 2-4 4l0 37-80 0 0-45c0-2-2-4-4-4-2 0-4 2-4 4l0 45-12 0c-2 0-4 2-4 4 0 2 2 4 4 4l12 0 0 63-88 0 0-108c0-2-2-4-4-4-2 0-4 2-4 4l0 116 96 0 0 208 40 0 0 76 52 45 52-45 0-76 48 0 0-208 88 0 0-116c0-2-2-4-4-4-2 0-4 2-4 4l0 108-80 0 0-63 12 0c2 0 4-2 4-4 0-2-2-4-4-4l-12 0 0-45c0-2-2-4-4-4-2 0-4 2-4 4l0 45z m-88 8l176 0 0 271-176 0z m128 345l-88 0 0-28 88 0z m0 4l0 3-44 38-44-38 0-3z m0-36l-88 0 0-34 88 0z m-284-394c-2 0-4 2-4 4 0 2 2 4 4 4l480 0c2 0 4-2 4-4 0-2-2-4-4-4z m174 332c0 1 1 2 2 2 1 0 2-1 2-2l0-232c0-1-1-2-2-2-1 0-2 1-2 2z m62-5c8 0 15-7 15-15 0-8-7-15-15-15-8 0-15 7-15 15 0 8 7 15 15 15z m0-6c-5 0-9-4-9-9 0-5 4-9 9-9 5 0 9 4 9 9 0 5-4 9-9 9z"/>
<glyph glyph-name="icon-sc-l-building-home" unicode="&#57518;" d="M285 216l-84 63c-1 1-2 1-3 2-2 2-5 3-7 5-3 1-6 3-9 4-3 1-6 2-8 2-2 0-5-1-8-2-3-1-6-3-9-4-2-2-5-3-7-5-1-1-2-1-3-2l-74-55 0-144c0-2-1-4-4-4-2 0-4 2-4 4l0 138-7-5c-1-2-4-1-5 1-2 1-1 4 1 5l70 53 0 0 0 66-18-13c-1-2-4-1-5 1-2 1-1 4 1 5l154 117c1 0 2 1 3 2 2 1 4 2 6 4 5 2 9 4 13 5 2 1 4 1 6 1 3 0 6-1 10-2 2-1 5-3 8-4 2-1 4-3 6-4 1-1 2-2 3-2l155-117c2-1 3-4 1-5-1-2-4-3-5-1l-13 9 0-246c0-2-1-4-4-4-2 0-4 2-4 4l0 124-151 0-2 1-1 1 0-129c0-1-1-2-2-2-1 0-2 1-2 2l0 129c0 1 1 1 2 2z m-153 62l10 7c1 1 2 2 4 3 2 1 4 3 7 5 3 2 6 3 10 4 4 2 7 3 11 3 3 0 7-1 11-3 3-1 7-2 10-4 2-2 5-3 7-5 2-1 3-2 4-2l86-66 149 0 0 120c0 0 0 0 0 0l-135 102c-1 0-1 0-3 1-1 1-3 3-5 4-3 1-5 2-7 3-3 1-5 2-7 2-1 0-3 0-4-1-3 0-7-2-11-4-2-1-4-3-5-4-1-1-2-1-3-2l-129-97 0 0z m-116-226c-2 0-4 2-4 4 0 2 2 4 4 4l480 0c2 0 4-2 4-4 0-2-2-4-4-4z m86 164c0 1 1 2 2 2 1 0 2-1 2-2l0-128c0-1-1-2-2-2-1 0-2 1-2 2z m182 139c7 0 12-6 12-12 0-7-5-13-12-13-7 0-12 6-12 13 0 6 5 12 12 12z m0-6c-3 0-6-3-6-6 0-4 3-7 6-7 3 0 6 3 6 7 0 3-3 6-6 6z m-38-6c0 1 1 2 2 2 1 0 2-1 2-2 0-20 15-36 34-36 19 0 34 16 34 36 0 1 1 2 2 2 1 0 2-1 2-2 0-22-17-40-38-40-21 0-38 18-38 40z"/>
<glyph glyph-name="icon-sc-l-building-hospital-surgical-expenses" unicode="&#57519;" d="M364 356l0-192 12 0c2 0 4-2 4-4 0-2-2-4-4-4l-12 0 0-36c0-2-2-4-4-4-2 0-4 2-4 4l0 36-96 0 0-44c0-2-2-4-4-4-2 0-4 2-4 4l0 44-104 0 0-36c0-2-2-4-4-4-2 0-4 2-4 4l0 36-12 0c-2 0-4 2-4 4 0 2 2 4 4 4l12 0 0 192-88 0 0-236c0-2-2-4-4-4-2 0-4 2-4 4l0 244 96 0 0 64 224 0 0-64 96 0 0-244c0-2-2-4-4-4-2 0-4 2-4 4l0 236z m-112 0l0 28c0 2 2 4 4 4 2 0 4-2 4-4l0-28 28 0c2 0 4-2 4-4 0-2-2-4-4-4l-28 0 0-28c0-2-2-4-4-4-2 0-4 2-4 4l0 28-28 0c-2 0-4 2-4 4 0 2 2 4 4 4z m-104-192l208 0 0 256-208 0z m-132-80c-2 0-4 2-4 4 0 2 2 4 4 4l480 0c2 0 4-2 4-4 0-2-2-4-4-4z m236 127c8 0 15-7 15-15 0-8-7-15-15-15-8 0-15 7-15 15 0 8 7 15 15 15z m0-6c-5 0-9-4-9-9 0-5 4-9 9-9 5 0 9 4 9 9 0 5-4 9-9 9z m188 45c1 0 2-1 2-2 0-1-1-2-2-2l-64 0c-1 0-2 1-2 2 0 1 1 2 2 2z m0 40c1 0 2-1 2-2 0-1-1-2-2-2l-64 0c-1 0-2 1-2 2 0 1 1 2 2 2z m0-152c1 0 2-1 2-2 0-1-1-2-2-2l-64 0c-1 0-2 1-2 2 0 1 1 2 2 2z m0 40c1 0 2-1 2-2 0-1-1-2-2-2l-64 0c-1 0-2 1-2 2 0 1 1 2 2 2z m0 40c1 0 2-1 2-2 0-1-1-2-2-2l-64 0c-1 0-2 1-2 2 0 1 1 2 2 2z m0 112c1 0 2-1 2-2 0-1-1-2-2-2l-64 0c-1 0-2 1-2 2 0 1 1 2 2 2z m-376-84c-1 0-2 1-2 2 0 1 1 2 2 2l64 0c1 0 2-1 2-2 0-1-1-2-2-2z m0 40c-1 0-2 1-2 2 0 1 1 2 2 2l64 0c1 0 2-1 2-2 0-1-1-2-2-2z m0-152c-1 0-2 1-2 2 0 1 1 2 2 2l64 0c1 0 2-1 2-2 0-1-1-2-2-2z m0 40c-1 0-2 1-2 2 0 1 1 2 2 2l64 0c1 0 2-1 2-2 0-1-1-2-2-2z m0 40c-1 0-2 1-2 2 0 1 1 2 2 2l64 0c1 0 2-1 2-2 0-1-1-2-2-2z m0 112c-1 0-2 1-2 2 0 1 1 2 2 2l64 0c1 0 2-1 2-2 0-1-1-2-2-2z"/>
<glyph glyph-name="icon-sc-l-building-main-office" unicode="&#57520;" d="M172 234l60 0 0-4-60 0 0-36 168 0 0 36-60 0 0 4 60 0 0 28-168 0z m168 32l0 68-168 0 0-36 132 0 0-4-132 0 0-28z m0-76l-168 0 0-90 168 0z m0 148l0 34-168 0 0-34z m-32 42l40 0 0-208 104 0 0-116c0-2-2-4-4-4-2 0-4 2-4 4l0 108-96 0 0-64 20 0c2 0 4-2 4-4 0-2-2-4-4-4l-20 0 0-36c0-2-2-4-4-4-2 0-4 2-4 4l0 36-72 0 0-36c0-2-2-4-4-4-2 0-4 2-4 4l0 36-88 0 0-36c0-2-2-4-4-4-2 0-4 2-4 4l0 36-12 0c-2 0-4 2-4 4 0 2 2 4 4 4l12 0 0 64-80 0 0-108c0-2-2-4-4-4-2 0-4 2-4 4l0 116 88 0 0 208 40 0 0 72 56 0 0 44c0 2 2 4 4 4 2 0 4-2 4-4l0-44 40 0z m-8 0l0 26-88 0 0-26z m-88 30l88 0 0 34-88 0z m-188-390c-2 0-4 2-4 4 0 2 2 4 4 4l472 0c2 0 4-2 4-4 0-2-2-4-4-4z m78 116c0 1 1 2 2 2 1 0 2-1 2-2l0-80c0-1-1-2-2-2-1 0-2 1-2 2z m158 11c8 0 15-7 15-15 0-8-7-15-15-15-8 0-15 7-15 15 0 8 7 15 15 15z m0-6c-5 0-9-4-9-9 0-5 4-9 9-9 5 0 9 4 9 9 0 5-4 9-9 9z"/>
<glyph glyph-name="icon-sc-l-building-office" unicode="&#57521;" d="M224 93l0-5c0-2-2-4-4-4-2 0-4 2-4 4l0 5c-7 1-12 8-12 15 0 9 7 16 16 16 9 0 16-7 16-16 0-7-5-14-12-15z m-40 0l0-5c0-2-2-4-4-4-2 0-4 2-4 4l0 5c-7 1-12 8-12 15 0 9 7 16 16 16 9 0 16-7 16-16 0-7-5-14-12-15z m-40 0l0-5c0-2-2-4-4-4-2 0-4 2-4 4l0 5c-7 1-12 8-12 15 0 9 7 16 16 16 9 0 16-7 16-16 0-7-5-14-12-15z m292 209l-212 0 0 4 212 0 0 28-212 0 0 4 212 0 0 28-212 0 0 4 212 0 0 34-288 0 0-168 80 0 0-2 208 0 0 28-212 0 0 4 212 0z m-208-72l0-102c0-2-2-4-4-4-2 0-4 2-4 4l0 100-144 0 0-140c0-2-2-4-4-4-2 0-4 2-4 4l0 148 72 0 0 176 82 0 0 52c0 1 1 2 2 2 1 0 2-1 2-2l0-52 218 0 0-332c0-2-2-4-4-4-2 0-4 2-4 4l0 150z m-212-178c-2 0-4 2-4 4 0 2 2 4 4 4l480 0c2 0 4-2 4-4 0-2-2-4-4-4z m86 148c0 1 1 2 2 2 1 0 2-1 2-2l0-112c0-1-1-2-2-2-1 0-2 1-2 2z m38-84c-4 0-8-4-8-8 0-4 4-8 8-8 4 0 8 4 8 8 0 4-4 8-8 8z m40 0c-4 0-8-4-8-8 0-4 4-8 8-8 4 0 8 4 8 8 0 4-4 8-8 8z m40 0c-4 0-8-4-8-8 0-4 4-8 8-8 4 0 8 4 8 8 0 4-4 8-8 8z"/>
<glyph glyph-name="icon-sc-l-building-skyscrapper" unicode="&#57522;" d="M172 278l0-28 176 0 0 28z m0 4l176 0 0 28-176 0z m0-36l0-28 176 0 0 28z m0-130l176 0 0 98-176 0z m0-8l0-36c0-2-2-4-4-4-2 0-4 2-4 4l0 36-12 0c-2 0-4 2-4 4 0 2 2 4 4 4l12 0 0 64-88 0 0-108c0-2-2-4-4-4-2 0-4 2-4 4l0 116 96 0 0 208 192 0 0-208 88 0 0-116c0-2-2-4-4-4-2 0-4 2-4 4l0 108-80 0 0-64 20 0c2 0 4-2 4-4 0-2-2-4-4-4l-20 0 0-36c0-2-2-4-4-4-2 0-4 2-4 4l0 36z m0 242l0-36 176 0 0 36z m0 4l176 0 0 34-176 0z m-156-318c-2 0-4 2-4 4 0 2 2 4 4 4l480 0c2 0 4-2 4-4 0-2-2-4-4-4z m78 116c0 1 1 2 2 2 1 0 2-1 2-2l0-80c0-1-1-2-2-2-1 0-2 1-2 2z m312 0c0 1 1 2 2 2 1 0 2-1 2-2l0-80c0-1-1-2-2-2-1 0-2 1-2 2z m-214 260c-2 0-4 2-4 4 0 2 2 4 4 4l128 0c2 0 4-2 4-4 0-2-2-4-4-4z m32 32c-2 0-4 2-4 4 0 2 2 4 4 4l64 0c2 0 4-2 4-4 0-2-2-4-4-4z m24 24c-2 0-4 2-4 4 0 2 2 4 4 4l16 0c2 0 4-2 4-4 0-2-2-4-4-4z m12-305c8 0 15-7 15-15 0-8-7-15-15-15-8 0-15 7-15 15 0 8 7 15 15 15z m0-6c-5 0-9-4-9-9 0-5 4-9 9-9 5 0 9 4 9 9 0 5-4 9-9 9z"/>
<glyph glyph-name="icon-sc-l-camera-photo-01" unicode="&#57523;" d="M496 364l0-249c0-22-18-39-39-39l-402 0c-21 0-39 17-39 39l0 249c0 21 18 39 39 39l402 0c21 0 39-18 39-39z m-10 0c0 16-13 30-29 30l-402 0c-16 0-29-14-29-30l0-249c0-16 13-30 29-30l402 0c16 0 29 14 29 30z m-230 5c72 0 125-53 125-127 0-74-54-133-125-133-71 0-125 59-125 133 0 74 53 127 125 127z m0-9c-67 0-115-50-115-118 0-69 49-123 115-123 66 0 115 54 115 123 0 68-48 118-115 118z m-70-51c1 1 2 1 4 0 1-1 1-3 0-4-14-17-22-39-22-63 0-24 8-46 23-63 1-2 1-3 0-4-2-1-3-1-4 0-16 18-25 42-25 67 0 25 8 49 24 67z m267 123c2 0 5-2 5-5 0-2-3-5-5-5l-58 0c-2 0-5 3-5 5 0 3 3 5 5 5z m-31-64c8 0 15-7 15-15 0-9-7-16-15-16-9 0-16 7-16 16 0 8 7 15 16 15z m0-7c-5 0-9-4-9-8 0-5 4-9 9-9 4 0 8 4 8 9 0 4-4 8-8 8z m-375 4c0 1 1 2 3 2 1 0 2-1 2-2l0-251c0-1-1-2-2-2-2 0-3 1-3 2z"/>
<glyph glyph-name="icon-sc-l-camera-photo-02" unicode="&#57524;" d="M496 353l0-242c0-22-18-39-39-39l-402 0c-21 0-39 17-39 39l0 242c0 22 18 39 39 39l402 0c21 0 39-17 39-39z m-8 2c0 16-13 29-30 29l-404 0c-17 0-30-13-30-29l0-246c0-16 13-29 30-29l404 0c17 0 30 13 30 29z m-368-278c0-3-2-5-4-5-3 0-5 2-5 5l0 275c0 17-12 30-27 30-2 0-4 3-4 5 0 3 2 5 4 5 20 0 36-18 36-40z m138 363l67 0c12 0 21-4 27-11 1-2 7-9 16-18 0 0 0 0 0-1 4-4 8-8 12-12 2-3 4-5 5-6l7-8-200 0 7 8c1 1 3 3 5 6 4 4 8 8 12 12 10 12 15 17 16 19 6 8 15 11 26 11z m104-36c0 0 0 0 0 0-10 11-16 18-17 20-4 5-10 8-19 8l-68 0c-9 0-15-3-19-8l-1-1c0 0-8-10-16-19-3-4-7-8-10-12l160 0c-4 4-7 8-10 12z m-290-52c9 0 16-7 16-16 0-9-7-16-16-16-9 0-16 7-16 16 0 9 7 16 16 16z m0-8c-4 0-8-4-8-8 0-4 4-8 8-8 4 0 8 4 8 8 0 4-4 8-8 8z m220 24c72 0 124-53 124-125 0-74-53-131-124-131-71 0-124 57-124 131 0 72 52 125 124 125z m0-8c-67 0-116-49-116-117 0-69 50-123 116-123 66 0 116 54 116 123 0 68-49 117-116 117z m-66-49c1 1 3 1 4 0 1-1 1-3 0-4-15-17-24-39-24-62 0-25 9-47 25-64 1-1 1-3 0-4-1-1-3-1-4 0-17 18-27 42-27 68 0 25 9 48 26 66z m233 113c3 0 5-2 5-4 0-2-2-4-5-4l-54 0c-3 0-5 2-5 4 0 2 2 4 5 4z"/>
<glyph glyph-name="icon-sc-l-camera-photo-image-file-preview" unicode="&#57525;" d="M496 367l0-230c0-23-18-41-41-41l-398 0c-23 0-41 18-41 41l0 230c0 23 18 41 41 41l398 0c23 0 41-18 41-41z m-8 2c0 17-14 31-31 31l-402 0c-17 0-31-14-31-31l0-234c0-17 14-31 31-31l402 0c17 0 31 14 31 31z m-372-25c20 0 36-16 36-36 0-20-16-36-36-36-20 0-36 16-36 36 0 20 16 36 36 36z m0-8c-15 0-28-13-28-28 0-15 13-28 28-28 15 0 28 13 28 28 0 15-13 28-28 28z m88-83l-120-117-4 4 124 121 42-41 119 116 91-89-4-4-87 85-119-117z m-152-122c0-2-1-3-2-3-1 0-2 1-2 3l0 234c0 2 1 3 2 3 1 0 2-1 2-3z"/>
<glyph glyph-name="icon-sc-l-camera-photo-preview-not-available-01" unicode="&#57526;" d="M83 410l-28 0c-16 0-29-14-29-30l0-248c0-16 13-30 29-30 3 0 5-2 5-4 0-3-2-5-5-5-21 0-39 17-39 39l0 248c0 22 18 39 39 39l141 0c1 1 2 2 4 5 4 4 8 9 12 13 10 11 16 18 17 19 6 8 15 11 26 11l69 0c11 0 21-3 26-11 2-2 8-9 17-19 0 0 0 0 0 0 4-5 8-9 12-13 2-3 4-5 5-6l8-8-284 0c8-8 14-19 14-31l0-219c0-3-3-5-5-5-3 0-5 2-5 5l0 219c0 17-13 31-29 31z m259 9l28 0c-3 4-7 8-10 11 0 0 0 0 0 1-10 10-16 17-17 19-4 5-10 8-19 8l-69 0c-8 0-15-3-19-8 0-1-6-8-17-20-3-3-6-7-10-11z m-276-44c9 0 16-7 16-16 0-8-7-15-16-15-8 0-15 7-15 15 0 9 7 16 15 16z m0-7c-4 0-8-4-8-9 0-4 4-8 8-8 5 0 9 4 9 8 0 5-4 9-9 9z m165-28c1 1 3 0 4-1 0-1 0-3-2-4-1 0-2-2-4-3-4-3-8-7-12-11-18-22-22-50-5-88 1-1 0-3-1-4-2 0-4 0-4 2-19 39-14 70 6 94 4 4 8 8 12 11 2 2 4 3 6 4z m-11-134c-1 1-1 3 1 4 1 1 3 1 4 0 1-1 2-3 4-5 0 0 1-1 1-1 2-2 3-3 3-3 2-1 2-3 2-4-1-1-3-2-4-1-2 1-3 2-5 4 0 0-1 1-1 1-2 2-4 4-5 5z m-35 14c1-2 0-5-2-7-3-1-5 0-7 2-1 3-3 8-6 15-6 21-8 47-1 75 0 1 0 3 1 4 1 3 2 7 4 11 4 10 10 20 17 30 8 9 16 17 25 24 4 3 10 7 19 11 24 10 52 14 85 7 1 0 3-1 6-2 5-1 10-3 15-5 1 0 3-1 4-1 2-2 3-5 2-7-2-2-5-3-7-2-1 1-2 1-3 2-4 1-9 3-13 4-3 1-5 1-6 2-31 6-57 2-79-7-5-2-9-5-12-7-2-1-4-2-5-3-9-6-16-13-23-22-7-9-12-18-16-28-2-3-3-7-4-9 0-2-1-3-1-4-6-27-4-51 2-70 1-4 2-7 3-10 1-2 1-3 2-3z m196 129c-2 2-2 5 0 6 2 2 5 2 7 0 1-1 2-3 5-6 3-5 7-11 11-17 9-17 14-37 15-58 2-51-24-99-63-121-49-27-105-24-151 19-2 2-2 5-1 7 2 2 5 2 7 0 43-40 95-42 140-18 36 20 60 65 59 112-1 20-7 38-15 54-3 7-7 12-10 16-2 3-4 5-4 6z m-338-308c-1-1-5-1-6 0-2 2-2 5 0 7l422 423c2 1 5 1 7 0 2-2 2-5 0-7z m103 52c-3 0-5 2-5 5 0 2 2 4 5 4l311 0c16 0 29 14 29 30l0 248c0 16-13 30-29 30l-10 0c-3 0-5 2-5 4 0 3 2 5 5 5l10 0c21 0 39-17 39-39l0-248c0-22-18-39-39-39z"/>
<glyph glyph-name="icon-sc-l-camera-photo-preview-not-available-02" unicode="&#57527;" d="M73 403l0 0c0 0 0 0 0 0z m131-8c-1-1-2-1-4-1l-109 0-19 0c-7 0-15-1-23-5-15-7-23-21-23-45l0-223c0-1 0-3 0-6 1-5 3-10 6-15 5-9 14-15 26-19 3 0 5-3 4-5-1-3-3-5-6-4-15 4-26 12-32 24-4 5-6 11-7 17-1 4-1 7-1 8l0 223c0 27 11 45 29 54 5 2 11 4 17 5 4 0 7 0 10 0 1 0 42 0 126 0l39 60c10 11 25 17 41 17l49 0c17 0 30-4 39-15l32-44c2-2 1-5-1-6-2-2-5-2-7 1l-31 43c-7 8-17 11-32 11l-49 0c-14 0-26-5-33-13l-41-61c0-1 0-1 0-1z m-86-323c-3 0-5 2-5 5 0 2 2 5 5 5l327 0c1 0 3 0 6 0 5 1 10 3 15 5 13 7 20 20 20 41l0 221c0 1 0 4 0 7-1 5-3 10-6 15-7 13-19 21-38 23-2 0-4 2-4 5 0 2 2 4 5 4 22-1 37-11 45-27 4-6 6-12 7-18 1-4 1-7 1-9l0-221c0-24-10-40-26-49-9-5-19-7-25-7z m250 255c-2 2-2 5-1 7 2 2 5 3 7 1 1-1 3-3 6-5 5-4 9-9 14-15 13-19 21-41 19-68-2-47-41-84-73-90-3 0-4 0-5-1-27-5-47-4-70 9-1 1-4 2-6 4-5 2-9 6-14 9-6 5-11 11-15 17-1 2-1 5 2 7 2 1 5 0 6-2 3-5 8-10 14-15 3-3 8-6 12-8 2-2 4-3 5-3 21-12 39-13 64-8 1 0 2 0 5 1 28 5 63 38 66 81 1 24-6 44-18 61-4 5-8 10-12 14-3 2-5 4-6 4z m-146-90c0-3-1-6-4-6-2-1-5 0-6 3 0 1 0 3-1 6-4 22 0 48 18 73 0 0 1 1 1 1 8 10 17 18 27 25 11 7 23 11 35 14 4 1 8 1 11 2 2 0 4 0 5 0 0 0 1 0 1 0 4 0 8 0 11 0 6 0 10-1 13-2 3-1 4-4 3-6-2-3-4-4-7-3-1 1-4 1-9 1-3 1-7 1-10 1-1 0-2 0-2-1-1 0-2 0-4 0-3 0-6-1-10-2-11-2-22-6-32-12-9-6-17-14-24-23 0 0-1-1-1-1-16-22-20-45-16-66 0-2 0-4 1-4z m-183-207c-2-2-5-2-7 0-2 2-2 5 0 7l432 427c1 2 5 2 6 0 2-2 2-5 0-7z m76 306c20 0 37-16 37-36 0-20-17-36-37-36-20 0-36 16-36 36 0 20 16 36 36 36z m0-10c-14 0-26-11-26-26 0-15 12-26 26-26 15 0 27 11 27 26 0 15-12 26-27 26z"/>
<glyph glyph-name="icon-sc-l-car-benefit-gap-cover-01" unicode="&#57528;" d="M315 123c-2 2-1 4 1 6 2 1 4 0 5-1l15-23c2-3 5-5 9-5l48 0c6 0 11 5 11 12l0 48c0 2 2 4 4 4 2 0 4-2 4-4l0-48c0-11-8-20-19-20l-48 0c-6 0-12 3-16 8z m-196 5c1 2 4 3 6 2 2-1 2-4 1-6 0 0 0-1-1-2-1-1-4-7-5-8 0-1-1-1-1-1 0-1-1-1-1-2l-3-4-4-7c-4-5-10-8-16-8l-48 0c-11 0-19 9-19 20l0 48c0 2 2 4 4 4 2 0 4-2 4-4l0-48c0-7 5-12 11-12l48 0c4 0 7 2 9 5l7 11c1 0 1 0 1 1 1 0 1 1 1 1 1 2 5 9 6 10z m-81 132l-9 0c-10 0-17 9-17 20l0 7c0 11 7 21 17 21l35 0c2 0 4-2 4-4 0-2-2-4-4-4l-35 0c-5 0-9-6-9-13l0-7c0-7 4-12 9-12l246 0c2 0 4-2 4-4 0-2-2-4-4-4l-216 0c-13 0-23-10-23-22l0-7c4-7 13-13 24-13l68 0c1 0 2-1 2-2 0-1-1-2-2-2l-68 0c-10 0-19 4-24 10l0-70c0-12 10-22 23-22l65 0 0 5c0 15 15 27 32 27l136 0c16 0 28-11 28-27l0-5 61 0c13 0 23 10 23 22l0 27c0 3 2 4 4 4 2 0 4-1 4-4l0-27c0-16-14-30-31-30l-322 0c-17 0-31 14-31 30l0 84c0 8 4 16 10 22z m278-128l0 5c0 14-10 23-24 23l-136 0c-15 0-28-10-28-23l0-5z m-233 154c-1-2-3-3-5-1-2 1-3 3-1 5l41 66c7 10 17 16 28 16l158 0c8 0 14-2 18-5 2-2 3-4 1-6-1-2-4-2-5-1-4 3-8 4-14 4l-158 0c-8 0-16-5-21-12z m-19-35c6 0 11-5 11-11 0-6-5-11-11-11-6 0-11 5-11 11 0 6 5 11 11 11z m0-6c-3 0-5-2-5-5 0-3 2-5 5-5 3 0 5 2 5 5 0 3-2 5-5 5z m50 34c-1-1-2-1-3-1-1 1-1 2-1 3l32 56c1 1 2 1 3 1 1-1 1-2 1-3z m362 66c13 0 24-10 24-23l0-36c0-13-11-23-24-23l-37 0 0-36c0-13-11-23-24-23l-38 0c-13 0-24 10-24 23l0 36-37 0c-13 0-24 10-24 23l0 36c0 13 11 23 24 23l37 0 0 36c0 13 11 23 24 23l38 0c13 0 24-10 24-23l0-36z m0-8l-45 0 0 44c0 8-7 15-16 15l-38 0c-9 0-16-7-16-15l0-44-45 0c-9 0-16-7-16-15l0-36c0-8 7-15 16-15l45 0 0-44c0-8 7-15 16-15l38 0c9 0 16 7 16 15l0 44 45 0c9 0 16 7 16 15l0 36c0 8-7 15-16 15z"/>
<glyph glyph-name="icon-sc-l-car-benefit-gap-cover-02" unicode="&#57529;" d="M374 198c0 0-1 0-1 0-11 0-19 4-25 12-2 2-3 5-5 7 0 2-1 3-1 4l4 1c0-1 0-2 1-3 1-2 2-5 4-7 5-6 12-10 22-10 16 0 25 9 25 24 0 9-6 15-18 20-2 1-4 1-9 3-18 7-25 14-25 25 0 15 10 24 27 24 0 0 1 0 1 0l0 14 4 0 0-14c8-2 14-6 17-12 2-3 3-5 3-8 1-2 1-3 1-4l-4 0c0 1 0 2-1 3 0 2-1 5-2 7-3 6-10 10-19 10-15 0-23-8-23-20 0-9 6-15 23-21 5-2 6-2 9-3 13-6 20-13 20-24 0-16-8-26-24-28l0-14-4 0z m-271-58l-19-85c-1-2-3-3-5-3-2 1-3 3-3 5l99 440c1 2 3 3 4 3l67 0c2 0 3-1 4-3l34-152c0-2-1-5-3-5-2 0-4 1-5 3l-34 149-59 0-20-88 85 0c2 0 4-2 4-4 0-2-2-4-4-4l-87 0-16-72 111 0c2 0 4-2 4-4 0-2-2-4-4-4l-112 0c-1 0-1 0-1 0l-20-88 117 0c2 0 4-2 4-4 0-2-2-4-4-4l-119 0-16-72 191 0c2 0 4-2 4-4 0-2-2-4-4-4l-192 0c0 0-1 0-1 0z m261-83c0-2-1-4-3-5-2 0-4 1-5 3l-16 64c0 2 1 4 3 5 2 0 4-1 5-3z m6 299c58 0 106-50 106-109 0-59-47-107-105-107-57 0-103 47-103 107 0 60 45 109 102 109z m0-8c-52 0-94-46-94-101 0-55 42-99 95-99 54 0 97 44 97 99 0 55-45 101-98 101z m-322-328c-2 0-4 2-4 4 0 2 2 4 4 4l336 0c2 0 4-2 4-4 0-2-2-4-4-4z"/>
<glyph glyph-name="icon-sc-l-car-help" unicode="&#57530;" d="M182 128l0 41 156 0 0-41 44 0 0-68 86 0 0 108c0 2 2 4 4 4 2 0 4-2 4-4l0-116-102 0 0 68-241 0 0-68-97 0 0 116c0 2 2 4 4 4 2 0 4-2 4-4l0-108 81 0 0 68z m93 276c0-8-7-15-15-15-8 0-15 7-15 15 0 8 7 15 15 15 8 0 15-7 15-15z m-6 0c0 5-4 9-9 9-5 0-9-4-9-9 0-5 4-9 9-9 5 0 9 4 9 9z m65-276l0 36-148 0 0-36z m86 120c0 2 2 4 4 4 2 0 4-2 4-4l0-8c0-20-17-36-38-36l-260 0c-21 0-38 16-38 36l0 8c0 2 2 4 4 4 2 0 4-2 4-4l0-8c0-15 13-28 30-28l260 0c17 0 30 13 30 28z m-7 76c9-7 15-18 15-30l0-10 53 0c10 0 19-9 19-19l0-29-75 0c-3 0-4 2-4 4 0 2 1 4 4 4l67 0 0 21c0 6-5 11-11 11l-53 0 0-28c0-2-2-4-4-4-2 0-4 2-4 4l0 46c0 17-13 30-30 30l-260 0c-17 0-30-13-30-30l0-46c0-2-2-4-4-4-2 0-4 2-4 4l0 28-61 0c-6 0-11-5-11-11l0-21 76 0c2 0 4-2 4-4 0-2-2-4-4-4l-84 0 0 29c0 10 9 19 19 19l61 0 0 10c0 12 6 23 15 30l-55 0 0 25c-9 4-16 12-16 23l0 24c0 13 11 24 24 24 13 0 24-11 24-24l0-24c0-13-11-24-24-24l0-16 60 0c1 0 2 0 2-1 3 1 5 1 8 1l314 0 0 17c-9 4-16 12-16 23l0 24c0 13 11 24 24 24 13 0 24-11 24-24l0-24c0-13-11-24-24-24l0-24z m-199-28c0 1 1 2 2 2 1 0 2-1 2-2l0-64c0-1-1-2-2-2-1 0-2 1-2 2z m-32 0c0 1 1 2 2 2 1 0 2-1 2-2l0-64c0-1-1-2-2-2-1 0-2 1-2 2z m144 0c0 1 1 2 2 2 1 0 2-1 2-2l0-64c0-1-1-2-2-2-1 0-2 1-2 2z m-80 0c0 1 1 2 2 2 1 0 2-1 2-2l0-64c0-1-1-2-2-2-1 0-2 1-2 2z m24 0c0 1 1 2 2 2 1 0 2-1 2-2l0-64c0-1-1-2-2-2-1 0-2 1-2 2z m24 0c0 1 1 2 2 2 1 0 2-1 2-2l0-64c0-1-1-2-2-2-1 0-2 1-2 2z m-138 148c-10 0-20-6-26-15l-22-78c-1-2-3-3-5-3-2 1-3 3-3 5l23 79 0 1c8 12 20 19 33 19l197 0c13 0 25-7 32-19l1-1 26-79c0-2-1-4-3-5-2 0-4 1-5 3l-26 78c-6 9-15 15-25 15z m-80-72l0 24c0 9-7 16-16 16-9 0-16-7-16-16l0-24c0-9 7-16 16-16 9 0 16 7 16 16z m392 24c0 9-7 16-16 16-9 0-16-7-16-16l0-24c0-9 7-16 16-16 9 0 16 7 16 16z m-94-232l-241 0 0-44c0-2-2-4-4-4-2 0-4 2-4 4l0 44-95 0c-10 0-18 9-18 19l0 65c0 2 2 4 4 4 2 0 4-2 4-4l0-65c0-6 5-11 10-11l452 0c5 0 10 5 10 11l0 65c0 2 2 4 4 4 2 0 4-2 4-4l0-65c0-10-8-19-18-19l-100 0 0-44c0-2-2-4-4-4-2 0-4 2-4 4z"/>
<glyph glyph-name="icon-sc-l-car-insurance" unicode="&#57531;" d="M476 236c-6-8-16-14-27-14l-73 0c-1 0-2 1-2 2 0 1 1 2 2 2l73 0c12 0 23 8 27 19l0 12c0 15-12 27-28 27l-376 0c-16 0-28-12-28-27l0-12c4-11 15-19 28-19l80 0c1 0 2-1 2-2 0-1-1-2-2-2l-80 0c-11 0-22 6-28 15l0-78c0-15 12-27 28-27l376 0c16 0 28 12 28 27z m8-77c0-19-16-35-36-35l-376 0c-20 0-36 16-36 35l0 98c0 19 16 35 36 35l376 0c20 0 36-16 36-35z m-343-29c1 2 3 2 5 1 2-1 3-4 1-6l-17-24c-4-6-10-9-17-9l-56 0c-12 0-21 10-21 22l0 54c0 2 2 4 4 4 2 0 4-2 4-4l0-54c0-8 6-14 13-14l56 0c4 0 8 2 11 6z m232-5c-2 2-1 5 1 6 2 1 4 1 5-1l17-24c3-4 7-6 11-6l56 0c7 0 13 6 13 14l0 54c0 2 2 4 4 4 2 0 4-2 4-4l0-54c0-12-9-22-21-22l-56 0c-7 0-13 3-17 9z m-282 193c-1-2-3-3-5-1-2 1-3 3-1 5l47 73c7 10 19 17 31 17l179 0c13 0 24-7 31-17l46-73c2-2 1-4-1-5-2-2-4-1-5 1l-46 72c-6 9-15 14-25 14l-179 0c-9 0-19-5-24-14z m63-190c0-1-1-2-2-2-1 0-2 1-2 2l0 8c0 20 16 34 36 34l152 0c19 0 32-14 32-34l0-8c0-1-1-2-2-2-1 0-2 1-2 2l0 8c0 18-11 30-28 30l-152 0c-17 0-32-13-32-30z m-78 139c8 0 15-7 15-15 0-8-7-15-15-15-8 0-15 7-15 15 0 8 7 15 15 15z m0-6c-5 0-9-4-9-9 0-5 4-9 9-9 5 0 9 4 9 9 0 5-4 9-9 9z m368 6c8 0 15-7 15-15 0-8-7-15-15-15-8 0-15 7-15 15 0 8 7 15 15 15z m0-6c-5 0-9-4-9-9 0-5 4-9 9-9 5 0 9 4 9 9 0 5-4 9-9 9z m-372 71c2 0 4-2 4-4 0-2-2-4-4-4l-41 0c-6 0-11-6-11-13l0-7c0-7 4-12 11-12l41 0c2 0 4-2 4-4 0-2-2-4-4-4l-41 0c-11 0-19 9-19 20l0 7c0 11 8 21 19 21z m368-8c-2 0-4 2-4 4 0 2 2 4 4 4l40 0c12 0 20-10 20-21l0-7c0-11-8-20-20-20l-40 0c-2 0-4 2-4 4 0 2 2 4 4 4l40 0c7 0 12 5 12 12l0 7c0 7-5 13-12 13z m-310-5c-1-1-2-1-3-1-1 1-1 2-1 3l40 56c1 1 2 1 3 1 1-1 1-2 1-3z"/>
<glyph glyph-name="icon-sc-l-car-loan" unicode="&#57532;" d="M284 156c13 0 27 5 40 14 5 3 9 7 13 10 2 2 3 3 4 4l79 137-23 110c-5 12-18 21-30 21l-229 0c-11 0-25-10-29-21l-25-110 79-137c0-1 2-2 3-4 3-4 6-7 9-10 10-9 22-14 35-14l52 0 0 148c0 1 1 2 2 2 1 0 2-1 2-2l0-148z m31 0l177 0 0 65c0 30-24 55-55 55l-34 0-56-97c-1-1-2-3-5-5-4-3-9-7-14-10-4-3-8-6-13-8z m93 128l29 0c35 0 63-28 63-63l0-69c0-2-2-4-4-4l-480 0c-2 0-4 2-4 4l0 69c0 35 28 63 62 63l22 0-20 36 0 1 26 112c4 15 21 27 36 27l229 0c15 0 31-11 37-27l24-113z m-307-8l-27 0c-30 0-54-25-54-55l0-65 161 0c-4 2-8 5-11 8-4 3-7 7-10 11-2 2-3 4-4 5z m-17-152l-48 0 0-72 48 0 0 71c0 0 0 1 0 1z m8 0c0 0 0-1 0-1l0-79-64 0 0 80-4 0c-2 0-4 2-4 4 0 2 2 4 4 4l472 0c2 0 4-2 4-4 0-2-2-4-4-4l-4 0 0-80-56 0 0 79c0 0 0 1 0 1z m392 0l-40 0c0 0 0-1 0-1l0-71 40 0z m-370 211c0-1-1-1-3-1-1 0-1 1-1 3l24 88c0 1 1 1 3 1 1 0 1-1 1-3z m344-131c0-17-13-30-30-30-17 0-30 13-30 30 0 17 13 30 30 30 17 0 30-13 30-30z m-4 0c0 14-12 26-26 26-14 0-26-12-26-26 0-14 12-26 26-26 14 0 26 12 26 26z m-387 120l13 0c2 0 4-2 4-4 0-2-2-4-4-4l-15 0c-3-4-8-7-13-7-8 0-15 7-15 15 0 8 7 15 15 15 8 0 15-7 15-15z m370 0c0 8 7 15 15 15 8 0 15-7 15-15 0-8-7-15-15-15-5 0-10 3-13 7l-15 0c-2 0-4 2-4 4 0 2 2 4 4 4z m-325 10c-1 0-2 1-2 2 0 1 1 2 2 2l288 0c1 0 2-1 2-2 0-1-1-2-2-2z m-6-130c0-17-13-30-30-30-17 0-30 13-30 30 0 17 13 30 30 30 17 0 30-13 30-30z m-4 0c0 14-12 26-26 26-14 0-26-12-26-26 0-14 12-26 26-26 14 0 26 12 26 26z m362-74c1 0 2-1 2-2 0-1-1-2-2-2l-202-40c-2 0-5 0-8 0l-198 40c-1 0-2 1-2 2 0 1 1 2 2 2l199-40c2 0 4 0 7 0z m-12 203c-5 0-9-4-9-9 0-5 4-9 9-9 5 0 9 4 9 9 0 5-4 9-9 9z m-400 0c-5 0-9-4-9-9 0-5 4-9 9-9 5 0 9 4 9 9 0 5-4 9-9 9z"/>
<glyph glyph-name="icon-sc-l-card-annual-fee-waiver-no-fees" unicode="&#57533;" d="M492 382l-468 0c-1 0-2 1-2 2 0 1 1 2 2 2l468 0 0 33c0 18-15 33-33 33l-406 0c-18 0-33-15-33-33l0-238c0-18 15-33 33-33l111 0c1 53 42 96 94 96 53 0 97-44 98-96l103 0c18 0 33 15 33 33z m-239-238l-30 31c-1 0-1 2 0 2 0 1 2 1 2 0l31-30 31 30c0 1 2 1 2 0 1 0 1-2 0-2l-30-31 30-31c1 0 1-2 0-2 0-1-2-1-2 0l-31 30-31-30c0-1-2-1-2 0-1 0-1 2 0 2z m-89-4c0 0 0 0 0 0l-111 0c-23 0-41 18-41 41l0 238c0 23 18 41 41 41l406 0c23 0 41-18 41-41l0-238c0-23-18-41-41-41l-103 0c-4-49-46-88-96-88-51 0-92 39-96 88z m94 96c-48 0-86-40-86-89 0-48 39-87 88-87 48 0 88 39 88 87 0 48-41 89-90 89z m-208-60c0-1-1-2-2-2-1 0-2 1-2 2l0 176c0 1 1 2 2 2 1 0 2-1 2-2z m290 111c-2 0-3 1-4 1-1 0-2 1-3 1-1 1-2 2-2 3-1 1-1 2-1 3 0 2 0 3 1 4 1 1 1 2 2 3 2 0 3 1 4 1 2 1 3 1 5 1 1 0 2 0 3 1 1 0 1 0 2 0 1 1 1 1 1 1 1 1 1 1 1 2 0 2-1 3-2 4-1 1-2 1-4 1-2 0-4-1-5-1-1-1-2-3-2-4l-4 0c0 1 0 2 0 3 1 1 2 2 2 3 1 1 3 1 4 2 1 0 3 0 5 0 1 0 2 0 4 0 1 0 2-1 3-1 1-1 2-2 2-3 1-1 1-3 1-5l0-13c0-1 1-2 1-2 0-1 1-1 2 0l0 0 0-4c0 0 0 0-1 0 0 0-1 0-1 0-2 0-3 0-3 1-1 1-2 2-2 3l0 0c-1-1-1-1-2-2 0 0-1-1-2-1 0-1-1-1-2-1-1 0-2-1-3-1z m1 4c1 0 2 0 3 1 1 0 2 1 3 1 1 1 1 2 1 3 1 1 1 1 1 2l0 5c-1-1-2-1-3-1-1-1-2-1-3-1-1 0-2-1-3-1-1 0-2 0-3-1 0 0-1-1-1-1-1-1-1-2-1-3 0 0 0-1 1-2 0 0 0-1 1-1 0-1 1-1 2-1 0 0 1 0 2 0z m17 25l5 0 0 9 4 0 0-9 6 0 0-4-6 0 0-17c0-1 1-2 1-3 1 0 1 0 2 0 1 0 1 0 1 0 1 0 1 0 2 0l0 0 0-4c-2 0-3 0-4 0-2 0-4 0-5 1-1 1-1 2-1 4l0 19-5 0z m21 0l4 0 0-4 0 0c1 1 2 2 4 3 1 1 3 1 5 1 1 0 3 0 4-1 1-1 2-2 3-4l0 0c1 2 2 3 4 4 1 1 3 1 5 1 2 0 4 0 6-2 1-1 2-4 2-7l0-19-5 0 0 19c0 2 0 3-1 4-1 1-2 1-4 1-1 0-1 0-2 0-1 0-2-1-2-2-1 0-1-1-2-2 0-1 0-2 0-3l0-17-5 0 0 19c0 2 0 3-1 4-1 1-2 1-4 1-1 0-1 0-2 0-1 0-2-1-2-2-1 0-2-1-2-2 0-1-1-2-1-3l0-17-4 0z"/>
<glyph glyph-name="icon-sc-l-card-atm" unicode="&#57534;" d="M500 378l0-244c0-23-18-42-41-42l-406 0c-23 0-41 19-41 42l0 244c0 23 18 42 41 42l406 0c23 0 41-19 41-42z m-8 0c0 19-15 34-33 34l-406 0c-18 0-33-15-33-34l0-244c0-19 15-34 33-34l406 0c18 0 33 15 33 34z m-468-36c-1 0-2 1-2 2 0 1 1 2 2 2l472 0c1 0 2-1 2-2 0-1-1-2-2-2z m26-206c0-1-1-2-2-2-1 0-2 1-2 2l0 176c0 1 1 2 2 2 1 0 2-1 2-2z m282 119c-2 0-3 1-4 1-1 0-2 1-3 1-1 1-2 2-2 3-1 1-1 2-1 3 0 2 0 3 1 4 1 1 1 2 2 3 2 0 3 1 4 1 2 1 3 1 5 1 1 0 2 0 3 1 1 0 1 0 2 0 1 1 1 1 1 1 1 1 1 1 1 2 0 2-1 3-2 4-1 1-2 1-4 1-2 0-4-1-5-1-1-1-2-3-2-4l-4 0c0 1 0 2 0 3 1 1 2 2 2 3 1 1 3 1 4 2 1 0 3 0 5 0 1 0 2 0 4 0 1 0 2-1 3-1 1-1 2-2 2-3 1-1 1-3 1-5l0-13c0-1 1-2 1-2 0-1 1-1 2 0l0 0 0-4c0 0 0 0-1 0 0 0-1 0-1 0-2 0-3 0-3 1-1 1-2 2-2 3l0 0c-1-1-1-1-2-2 0 0-1-1-2-1 0-1-1-1-2-1-1 0-2-1-3-1z m1 4c1 0 2 0 3 1 1 0 2 1 3 1 1 1 1 2 1 3 1 1 1 1 1 2l0 5c-1-1-2-1-3-1-1-1-2-1-3-1-1 0-2-1-3-1-1 0-2 0-3-1 0 0-1-1-1-1-1-1-1-2-1-3 0 0 0-1 1-2 0 0 0-1 1-1 0-1 1-1 2-1 0 0 1 0 2 0z m17 25l5 0 0 9 4 0 0-9 6 0 0-4-6 0 0-17c0-1 1-2 1-3 1 0 1 0 2 0 1 0 1 0 1 0 1 0 1 0 2 0l0 0 0-4c-2 0-3 0-4 0-2 0-4 0-5 1-1 1-1 2-1 4l0 19-5 0z m21 0l4 0 0-4 0 0c1 1 2 2 4 3 1 1 3 1 5 1 1 0 3 0 4-1 1-1 2-2 3-4l0 0c1 2 2 3 4 4 1 1 3 1 5 1 2 0 4 0 6-2 1-1 2-4 2-7l0-19-5 0 0 19c0 2 0 3-1 4-1 1-2 1-4 1-1 0-1 0-2 0-1 0-2-1-2-2-1 0-1-1-2-2 0-1 0-2 0-3l0-17-5 0 0 19c0 2 0 3-1 4-1 1-2 1-4 1-1 0-1 0-2 0-1 0-2-1-2-2-1 0-2-1-2-2 0-1-1-2-1-3l0-17-4 0z"/>
<glyph glyph-name="icon-sc-l-card-cashback" unicode="&#57535;" d="M258 100c-9 0-15 4-20 10-2 2-3 4-4 7-1 1-1 2-1 3l3 1c1 0 1-1 1-3 1-2 3-4 4-6 5-5 11-9 20-9 15 0 23 8 23 21 0 8-6 14-16 18-3 1-4 1-9 3-16 6-23 12-23 23 0 11 8 20 22 21l0 14 4 0 0-14c10-1 16-5 20-11 1-2 2-5 2-7 0-2 1-3 1-4l-4 0c0 1-1 2-1 3 0 2-1 4-2 6-3 5-9 9-17 9-13 0-21-7-21-17 0-9 5-14 21-19 4-2 6-2 8-3 12-5 19-12 19-22 0-15-9-24-26-25l0-14-4 0z m98 48l103 0c18 0 33 15 33 33l0 238c0 18-15 33-33 33l-406 0c-18 0-33-15-33-33l0-238c0-18 15-33 33-33l111 0c0 0 0 0 0 0 3 53 43 96 94 96 52 0 95-43 98-96z m-192-8l-111 0c-23 0-41 18-41 41l0 238c0 23 18 41 41 41l406 0c23 0 41-18 41-41l0-238c0-23-18-41-41-41l-103 0c-1-53-44-96-96-96-53 0-95 42-96 96z m94 96c-48 0-86-42-86-93 0-51 39-91 88-91 48 0 88 41 88 91 0 50-41 93-90 93z m102 78c19 0 34-15 34-34 0-19-15-34-34-34-19 0-34 15-34 34 0 19 15 34 34 34z m0-4c-16 0-30-13-30-30 0-16 14-30 30-30 16 0 30 14 30 30 0 17-14 30-30 30z m40 4c19 0 34-15 34-34 0-19-15-34-34-34-19 0-34 15-34 34 0 19 15 34 34 34z m0-4c-16 0-30-13-30-30 0-16 14-30 30-30 16 0 30 14 30 30 0 17-14 30-30 30z m-376 72c-1 0-2 1-2 2 0 1 1 2 2 2l472 0c1 0 2-1 2-2 0-1-1-2-2-2z m26-206c0-1-1-2-2-2-1 0-2 1-2 2l0 176c0 1 1 2 2 2 1 0 2-1 2-2z"/>
<glyph glyph-name="icon-sc-l-card-change-transfer-limit" unicode="&#57536;" d="M114 70c39-33 88-52 140-52 54 0 105 20 145 55 0 1 2 1 2 0 1 0 1-2 0-2-40-37-92-57-147-57-52 0-102 19-142 52l0-34c0-1-1-2-2-2-1 0-2 1-2 2l0 42 42 0c1 0 2-1 2-2 0-1-1-2-2-2z m263 380l3 0 0 38c0 1 1 2 2 2 1 0 2-1 2-2l0-42-42 0c-1 0-2 1-2 2 0 1 1 2 2 2l33 0c0 0 0 0 0 0-1 0-2 1-4 2-2 2-6 3-9 5-11 5-22 10-33 15-12 5-24 9-35 13-18 6-34 9-47 9-49 0-96-17-134-48-1 0-2 0-3 1 0 1 0 2 1 3 38 31 86 48 136 48 13 0 29-3 48-9 11-4 23-8 35-13 12-5 23-10 33-15 4-2 7-4 10-5 2-1 3-2 4-2 1-1 1-2 1-3-1-1-1-1-1-1z m107-104l0 28c0 17-14 30-32 30l-392 0c-18 0-32-13-32-30l0-228c0-17 14-30 32-30l392 0c18 0 32 13 32 30l0 196-452 0c-1 0-2 1-2 2 0 1 1 2 2 2z m8 28l0-228c0-21-18-38-40-38l-392 0c-22 0-40 17-40 38l0 228c0 21 18 38 40 38l392 0c22 0 40-17 40-38z m-434-230c0-1-1-2-2-2-1 0-2 1-2 2l0 168c0 1 1 2 2 2 1 0 2-1 2-2z"/>
<glyph glyph-name="icon-sc-l-card-debit" unicode="&#57537;" d="M492 346l0 32c0 19-15 34-33 34l-406 0c-18 0-33-15-33-34l0-244c0-19 15-34 33-34l406 0c18 0 33 15 33 34l0 208-468 0c-1 0-2 1-2 2 0 1 1 2 2 2z m8 32l0-244c0-23-18-42-41-42l-406 0c-23 0-41 19-41 42l0 244c0 23 18 42 41 42l406 0c23 0 41-19 41-42z m-450-242c0-1-1-2-2-2-1 0-2 1-2 2l0 176c0 1 1 2 2 2 1 0 2-1 2-2z m244 119c-2 0-3 1-5 1-2 1-3 2-4 3-1 1-2 3-2 5-1 2-1 4-1 6 0 2 0 4 1 6 0 2 1 3 2 5 1 1 3 2 4 2 2 1 3 1 5 1 2 0 4 0 5-1 2-1 3-2 4-3l0 0c0 0 0 1 0 2 0 1 0 2 0 3l0 10 5 0 0-39-5 0 0 4 0 0c-1-2-2-3-4-4-1 0-3-1-5-1z m0 4c2 0 3 0 4 1 1 0 2 1 3 2 1 1 1 2 2 4 0 1 0 2 0 4 0 1 0 3-1 4 0 1 0 3-1 3-1 1-2 2-3 3-1 0-2 0-4 0-1 0-2 0-3 0-1-1-2-2-2-3-1-1-1-2-2-3 0-1 0-3 0-4 0-2 0-3 0-4 1-2 1-3 2-4 0-1 1-2 2-2 1-1 2-1 3-1z m32-4c-2 0-4 1-5 1-2 1-4 2-5 3-1 2-2 3-2 5-1 2-1 4-1 6 0 2 0 4 1 6 0 1 1 3 2 4 1 2 3 3 5 3 1 1 3 1 5 1 2 0 4 0 5-1 2 0 3-1 5-3 1-1 2-3 2-5 1-2 1-4 1-6l-21 0c0-2 0-3 0-4 1-1 1-2 2-3 1-1 2-2 3-2 1-1 2-1 3-1 2 0 4 1 5 1 1 1 2 2 3 4l4 0c0-3-2-5-4-6-2-2-5-3-8-3z m0 26c-1 0-2 0-3-1-1 0-2-1-3-2-1 0-1-1-1-2-1-1-1-3-1-4l16 0c0 3-1 5-2 6-2 2-4 3-6 3z m32-26c-2 0-4 1-5 1-2 1-3 2-4 4l0 0 0-4-5 0 0 39 5 0 0-10c0-1 0-2 0-3 0-1 0-2 0-3l0 0c1 2 2 3 4 4 1 1 3 1 5 1 2 0 3 0 5-1 1 0 2-1 3-2 1-2 2-3 3-5 0-2 1-4 1-6 0-2-1-4-1-6-1-2-1-4-3-5-1-1-2-2-3-3-2 0-3-1-5-1z m-1 4c1 0 3 0 4 1 0 0 1 1 2 2 1 1 1 2 1 4 1 1 1 2 1 4 0 1 0 3-1 4 0 1 0 2-1 3-1 1-1 2-2 3-1 0-3 0-4 0-1 0-3 0-4 0-1-1-2-2-2-3-1-1-2-2-2-3 0-1 0-3 0-4 0-2 0-3 0-4 1-2 1-3 2-4 0-1 1-2 2-2 2-1 3-1 4-1z m18 36l5 0 0-6-5 0z m0-11l5 0 0-28-5 0z m10 0l4 0 0 9 5 0 0-9 5 0 0-4-5 0 0-17c0-1 0-2 0-3 1 0 2 0 3 0 0 0 0 0 1 0 0 0 1 0 1 0l0 0 0-4c-1 0-2 0-4 0-2 0-3 0-4 1-2 1-2 2-2 4l0 19-4 0z"/>
<glyph glyph-name="icon-sc-l-card-debit-exclusive-benefits" unicode="&#57538;" d="M250 150l0 44c0 1 1 2 2 2 1 0 2-1 2-2l0-44 44 0c1 0 2-1 2-2 0-1-1-2-2-2l-44 0 0-44c0-1-1-2-2-2-1 0-2 1-2 2l0 44-44 0c-1 0-2 1-2 2 0 1 1 2 2 2z m97 7l112 0c18 0 33 14 33 32l0 201-468 0c-1 0-2 1-2 2 0 1 1 2 2 2l468 0 0 33c0 18-15 33-33 33l-406 0c-18 0-33-15-33-33l0-238c0-18 15-32 33-32l103-1c5 49 45 88 94 88 50 0 92-39 97-87z m1-8c0-1 0-1 0-2 0-53-43-95-96-95-54 0-96 42-96 95 0 0 0 1 0 1l-103 1c-23 0-41 18-41 40l0 238c0 23 18 41 41 41l406 0c23 0 41-18 41-41l0-238c0-22-18-40-41-40z m-298 35c0-1-1-2-2-2-1 0-2 1-2 2l0 176c0 1 1 2 2 2 1 0 2-1 2-2z m200 52c-48 0-86-40-86-89 0-49 39-87 88-87 48 0 88 39 88 87 0 48-41 89-90 89z m52 67c-2 0-3 1-5 1-2 1-3 2-4 3-1 1-2 3-2 5-1 2-1 4-1 6 0 2 0 4 1 6 0 2 1 3 2 5 1 1 3 2 4 2 2 1 3 1 5 1 2 0 4 0 5-1 2-1 3-2 4-3l0 0c0 0 0 1 0 2 0 1 0 2 0 3l0 10 5 0 0-39-5 0 0 4 0 0c-1-2-2-3-4-4-1 0-3-1-5-1z m0 4c2 0 3 0 4 1 1 0 2 1 3 2 1 1 1 2 2 4 0 1 0 2 0 4 0 1 0 3-1 4 0 1 0 3-1 3-1 1-2 2-3 3-1 0-2 0-4 0-1 0-2 0-3 0-1-1-2-2-2-3-1-1-1-2-2-3 0-1 0-3 0-4 0-2 0-3 0-4 1-2 1-3 2-4 0-1 1-2 2-2 1-1 2-1 3-1z m32-4c-2 0-4 1-5 1-2 1-4 2-5 3-1 2-2 3-2 5-1 2-1 4-1 6 0 2 0 4 1 6 0 1 1 3 2 4 1 2 3 3 5 3 1 1 3 1 5 1 2 0 4 0 5-1 2 0 3-1 5-3 1-1 2-3 2-5 1-2 1-4 1-6l-21 0c0-2 0-3 0-4 1-1 1-2 2-3 1-1 2-2 3-2 1-1 2-1 3-1 2 0 4 1 5 1 1 1 2 2 3 4l4 0c0-3-2-5-4-6-2-2-5-3-8-3z m0 26c-1 0-2 0-3-1-1 0-2-1-3-2-1 0-1-1-1-2-1-1-1-3-1-4l16 0c0 3-1 5-2 6-2 2-4 3-6 3z m32-26c-2 0-4 1-5 1-2 1-3 2-4 4l0 0 0-4-5 0 0 39 5 0 0-10c0-1 0-2 0-3 0-1 0-2 0-3l0 0c1 2 2 3 4 4 1 1 3 1 5 1 2 0 3 0 5-1 1 0 2-1 3-2 1-2 2-3 3-5 0-2 1-4 1-6 0-2-1-4-1-6-1-2-1-4-3-5-1-1-2-2-3-3-2 0-3-1-5-1z m-1 4c1 0 3 0 4 1 0 0 1 1 2 2 1 1 1 2 1 4 1 1 1 2 1 4 0 1 0 3-1 4 0 1 0 2-1 3-1 1-1 2-2 3-1 0-3 0-4 0-1 0-3 0-4 0-1-1-2-2-2-3-1-1-2-2-2-3 0-1 0-3 0-4 0-2 0-3 0-4 1-2 1-3 2-4 0-1 1-2 2-2 2-1 3-1 4-1z m18 36l5 0 0-6-5 0z m0-11l5 0 0-28-5 0z m10 0l4 0 0 9 5 0 0-9 5 0 0-4-5 0 0-17c0-1 0-2 0-3 1 0 2 0 3 0 0 0 0 0 1 0 0 0 1 0 1 0l0 0 0-4c-1 0-2 0-4 0-2 0-3 0-4 1-2 1-2 2-2 4l0 19-4 0z"/>
<glyph glyph-name="icon-sc-l-card-mastercard" unicode="&#57539;" d="M492 346l0 32c0 19-15 34-33 34l-406 0c-18 0-33-15-33-34l0-244c0-19 15-34 33-34l406 0c18 0 33 15 33 34l0 208-468 0c-1 0-2 1-2 2 0 1 1 2 2 2z m8 32l0-244c0-23-18-42-41-42l-406 0c-23 0-41 19-41 42l0 244c0 23 18 42 41 42l406 0c23 0 41-19 41-42z m-450-242c0-1-1-2-2-2-1 0-2 1-2 2l0 176c0 1 1 2 2 2 1 0 2-1 2-2z m318 138c19 0 34-15 34-34 0-19-15-35-34-35-19 0-34 16-34 35 0 19 15 34 34 34z m0-4c-16 0-30-13-30-30 0-17 14-31 30-31 16 0 30 14 30 31 0 17-14 30-30 30z m40 4c19 0 34-15 34-34 0-19-15-35-34-35-19 0-34 16-34 35 0 19 15 34 34 34z m0-4c-16 0-30-13-30-30 0-17 14-31 30-31 16 0 30 14 30 31 0 17-14 30-30 30z"/>
<glyph glyph-name="icon-sc-l-card-nets-mastercard-payment" unicode="&#57540;" d="M492 270l-204 0c-1 0-2 1-2 2 0 1 1 2 2 2l204 0 0 33c0 14-12 25-26 25l-179 0c-2 0-4 2-4 4 0 2 2 4 4 4l179 0c19 0 34-15 34-33l0-190c0-18-15-33-34-33l-332 0c-19 0-34 15-34 33l0 139c0 2 2 4 4 4 2 0 4-2 4-4l0-139c0-14 12-25 26-25l332 0c14 0 26 11 26 25z m-270 22l0 28c0 1 1 2 2 2 1 0 2-1 2-2l0-28c12 0 19 0 22 0 11 0 20 8 20 20 0 12-9 20-20 20-5 0-19 0-40 0-3 0-3 0-5 0-15 0-15 0-26 0-9 0-9 0-11 0-2 0-4 2-4 4 0 2 2 4 4 4 2 0 2 0 11 0 11 0 11 0 26 0 2 0 2 0 5 0 21 0 35 0 40 0 15 0 28-12 28-28 0-16-13-28-28-28-5 0-26 0-57 0-3 0-3 0-5 0-12 0-25 0-37 0-13 0-13 0-16 0-34 0-60 8-86 33l-34 32c-1 2-1 4 0 6 2 1 4 1 6 0l34-32c24-23 48-31 80-31 3 0 3 0 16 0 12 0 25 0 37 0 2 0 2 0 5 0 12 0 22 0 31 0z m-129 129c-1 2-1 4 0 6 2 1 4 1 6 0 7-7 20-11 38-13 10-1 18-1 33-1 1 0 2 0 3 0l105 0c30 0 52-8 73-29 1 0 1 0 3-2 1-2 4-4 6-7 6-7 13-14 19-20 1-2 1-4 0-6-2-1-4-1-6 0-6 7-13 14-19 21-2 2-4 4-6 6-2 2-2 2-2 3-20 18-40 26-68 26l-105 0c-1 0-2 0-3 0-15 0-24 0-33 1-20 2-35 7-44 15z m37-309c0-1-1-2-2-2-1 0-2 1-2 2l0 144c0 1 1 2 2 2 1 0 2-1 2-2z"/>
<glyph glyph-name="icon-sc-l-card-no-need-credit-card" unicode="&#57541;" d="M368 274c19 0 34-15 34-34 0-19-15-34-34-34-19 0-34 15-34 34 0 19 15 34 34 34z m0-4c-16 0-30-14-30-30 0-16 14-30 30-30 16 0 30 14 30 30 0 16-14 30-30 30z m-24 68l148 0 0 33c0 18-15 33-33 33-2 0-4 2-4 4 0 2 2 4 4 4 23 0 41-18 41-41l0-238c0-23-18-41-41-41l-307 0c-2 0-4 2-4 4 0 2 2 4 4 4l307 0c18 0 33 15 33 33l0 201-152 0-297-297c-2-1-4-1-6 0-1 2-1 4 0 6l291 291-304 0c-1 0-2 1-2 2 0 1 1 2 2 2l308 0 137 137c2 1 4 1 6 0 1-2 1-4 0-6z m64-64c19 0 34-15 34-34 0-19-15-34-34-34-19 0-34 15-34 34 0 19 15 34 34 34z m0-4c-16 0-30-14-30-30 0-16 14-30 30-30 16 0 30 14 30 30 0 16-14 30-30 30z m-56 142c2 0 4-2 4-4 0-2-2-4-4-4l-300 0c-17 0-32-15-32-33l0-238c0-18 15-33 32-33 3 0 4-2 4-4 0-2-1-4-4-4-22 0-40 18-40 41l0 238c0 23 18 41 40 41z m-302-284c0-1-1-2-2-2-1 0-2 1-2 2l0 176c0 1 1 2 2 2 1 0 2-1 2-2z"/>
</font>
</defs>
</svg>
